.
Авторизация | Регистрация
Хочешь лучшие торренты? Добавь свой email!
Добавить
» » Ночь страха 2 / Fright Night 2 (2013) Blu-ray Remux 1080p от MediaClub | P, L2 скачать через торрент бесплатно




    Ночь страха 2 / Fright Night 2 (2013) Blu-ray Remux 1080p от MediaClub | P, L2 скачать через торрент бесплатно

    Опубликовал: Админ | Дата: 27-02-2015, 11:09 | Просмотров: 323



    Информация о фильме
    Название: Ночь страха 2
    Оригинальное название: Fright Night 2
    Год выхода: 2013
    Жанр: Ужасы, комедия
    Режиссер: Эдуардо Родригез
    В ролях: Уилл Пэйн, Джейми Мюррэй, Шон Пауэр, Саша Паркинсон, Крис Уоллер, Джон-Кристиан Бейтман, Лиана Маргиняну, Алина Минзу, Ади Хостиук, Джоэль Коутинью

    О фильме:
    Молодые студенты колледжа внезапно узнают страшную правду о своем новом профессоре. Оказывается, их профессор — красивая молодая женщина Джерри Дэндридж — настоящая вампирша! Пытаясь донести это до остальных, ребята, сами того не желая, подписали себе смертный приговор. Потому что Джерри совершенно не хочет, чтобы ее тайна стала достоянием общественности…



    Страна: США / Gaeta, Rosenzweig Films
    Продолжительность: 01:39:41
    Перевод: Профессиональный многоголосый, любительский двухголосый

    Файл
    Качество: Blu-ray Remux 1080p
    Видео: MPEG-4 AVC, 32943 Кбит/с, 1920x1080, 23.976 кадр/с
    Аудио #1: Русский (AC3, 6 ch, 384 Кбит/с) / Профессиональный многоголосый (iTunes)
    Аудио #2: Русский (AC3, 6 ch, 448 Кбит/с) / Любительский двухголосый (Пираты)
    Аудио #3: Английский (DTS-HD MA, 6 ch, 4197 Кбит/с)
    Субтитры: Английские

    MI
    Format : Matroska
    Format version : Version 4 / Version 2
    File size : 25.1 GiB
    Duration : 1h 39mn
    Overall bit rate : 36.1 Mbps
    Movie name : -=MediaClub-Odessit=-
    Encoded date : UTC 2013-10-20 14:14:44
    Writing application : mkvmerge v6.2.0 (;Promised Land;) built on Apr 28 2013 12:22:01
    Writing library : libebml v1.3.0 libmatroska v1.4.0

    Video
    ID : 1
    Format : AVC
    Format/Info : Advanced Video Codec
    Format profile : High@L4.1
    Format settings, CABAC : Yes
    Format settings, ReFrames : 2 frames
    Codec ID : V_MPEG4/ISO/AVC
    Duration : 1h 39mn
    Bit rate mode : Variable
    Bit rate : 32.9 Mbps
    Width : 1 920 pixels
    Height : 1 080 pixels
    Display aspect ratio : 16:9
    Frame rate : 23.976 fps
    Color space : YUV
    Chroma subsampling : 4:2:0
    Bit depth : 8 bits
    Scan type : Progressive
    Bits/(Pixel*Frame) : 0.663
    Stream size : 22.9 GiB (91%)

    Audio #1
    ID : 2
    Format : AC-3
    Format/Info : Audio Coding 3
    Mode extension : CM (complete main)
    Codec ID : A_AC3
    Duration : 1h 39mn
    Bit rate mode : Constant
    Bit rate : 384 Kbps
    Channel(s) : 6 channels
    Channel positions : Front: L C R, Side: L R, LFE
    Sampling rate : 48.0 KHz
    Bit depth : 16 bits
    Compression mode : Lossy
    Stream size : 274 MiB (1%)
    Title : (iTunes)
    Language : Russian

    Audio #2
    ID : 3
    Format : AC-3
    Format/Info : Audio Coding 3
    Mode extension : CM (complete main)
    Codec ID : A_AC3
    Duration : 1h 39mn
    Bit rate mode : Constant
    Bit rate : 448 Kbps
    Channel(s) : 6 channels
    Channel positions : Front: L C R, Side: L R, LFE
    Sampling rate : 48.0 KHz
    Bit depth : 16 bits
    Compression mode : Lossy
    Stream size : 319 MiB (1%)
    Title : Пираты
    Language : Russian

    Audio #3
    ID : 4
    Format : DTS
    Format/Info : Digital Theater Systems
    Format profile : MA / Core
    Codec ID : A_DTS
    Duration : 1h 39mn
    Bit rate mode : Variable
    Bit rate : 1 561 Kbps / 1 510 Kbps
    Channel(s) : 6 channels
    Channel positions : Front: L C R, Side: L R, LFE
    Sampling rate : 48.0 KHz
    Bit depth : 24 bits
    Compression mode : Lossless / Lossy
    Language : English

    Text
    ID : 5
    Format : UTF-8
    Codec ID : S_TEXT/UTF8
    Codec ID/Info : UTF-8 Plain Text
    Language : English

    Menu
    00:00:00.000 : :Chapter 01
    00:04:26.266 : :Chapter 02
    00:07:53.973 : :Chapter 03
    00:12:35.713 : :Chapter 04
    00:14:43.549 : :Chapter 05
    00:18:23.143 : :Chapter 06
    00:24:15.328 : :Chapter 07
    00:27:25.352 : :Chapter 08
    00:32:58.810 : :Chapter 09
    00:35:49.772 : :Chapter 10
    00:39:04.383 : :Chapter 11
    00:46:16.982 : :Chapter 12
    00:50:34.406 : :Chapter 13
    00:56:34.182 : :Chapter 14
    01:03:10.286 : :Chapter 15
    01:06:37.868 : :Chapter 16
    01:10:28.599 : :Chapter 17
    01:12:00.149 : :Chapter 18
    01:14:49.943 : :Chapter 19
    01:20:10.138 : :Chapter 20
    01:25:10.480 : :Chapter 21
    01:28:41.274 : :Chapter 22
    01:33:22.388 : :Chapter 23
    01:36:09.764 : :Chapter 24
    01:39:41.725 : :Chapter 25

    Скриншоты


    Релиз от:
    Размер: 25.11 GB (26958822908 Bytes)

    Ночь страха 2 / Fright Night 2 (2013) Blu-ray Remux 1080p от MediaClub | P, L2 скачать через торрент бесплатно
    загрузка...
    Рейтинг →
     (голосов: 1, оценка 5/5, голосовать можно 1 раз )

    Другие торренты по теме:

  • Ночь страха / Fright Night (2011) HDRip-AVC | D
  • Ночь страха 2 / Fright Night 2 (2013) BDRip 720p | L1
  • Ночь страха 2 / Fright Night 2 (2013) HDRip | L1
  • Ночь страха 2 / Fright Night 2 (2013) DVDRip | L1
  • Ночь страха 2 / Fright Night 2 (2013) HDRip | L2 скачать через торрент бесплатно
  • Ночь страха 2 / Fright Night 2 (2013) BDRip 720p | L2, L1 скачать через торрент бесплатно
  • Ночь страха 2 / Fright Night 2 (2013) BDRip 720p | L2
  • Ночь страха 2 / Fright Night 2 (2013) BDRip 720p | iTunes


    • Комментарии (0):

      Информация

      Информация

        Посетители, находящиеся в группе Гости, не могут оставлять комментарии в данной новости.

        ↓ Меню



        ↓ Опрос

        А Вы добавили сайт в закладки?
        Да
        Не


        Top 10 за месяц (Фильмы)