.
Авторизация | Регистрация
» » Ночь страха 2 / Fright Night 2 (2013) BDRip (AVC) от MediaClub | P скачать через торрент бесплатно




    Ночь страха 2 / Fright Night 2 (2013) BDRip (AVC) от MediaClub | P скачать через торрент бесплатно

    Опубликовал: Админ | Дата: 27-02-2015, 11:09 | Просмотров: 305



    Информация о фильме
    Название: Ночь страха 2
    Оригинальное название: Fright Night 2
    Год выхода: 2013
    Жанр: Ужасы, комедия
    Режиссер: Эдуардо Родригез
    В ролях: Уилл Пэйн, Джейми Мюррэй, Шон Пауэр, Саша Паркинсон, Крис Уоллер, Джон-Кристиан Бейтман, Лиана Маргиняну, Алина Минзу, Ади Хостиук, Джоэль Коутинью

    О фильме:
    Молодые студенты колледжа внезапно узнают страшную правду о своем новом профессоре. Оказывается, их профессор — красивая молодая женщина Джерри Дэндридж — настоящая вампирша! Пытаясь донести это до остальных, ребята, сами того не желая, подписали себе смертный приговор. Потому что Джерри совершенно не хочет, чтобы ее тайна стала достоянием общественности…



    Страна: США, Gaeta / Rosenzweig Films
    Продолжительность: 01:39:41
    Перевод: Профессиональный многоголосый

    Файл
    Кодек: x264
    Качество: BDRip (AVC) Fright.Night.2.2013.1080p.Blu-ray.AVC.DTS-HD.MA.5.1
    Видео: MPEG-4 AVC, 2350 Кбит/с, 1024x576, 23.976 кадр/с
    Аудио #1: Русский (AC3, 6 ch, 384 Кбит/с) / Профессиональный многоголосый (iTunes)
    Аудио #2: Английский (AC3, 6 ch, 448 Кбит/с)
    Субтитры: Английские



    x264 log
    x264 info: frame I:1119 Avg QP:14.87 size: 71481
    x264 info: frame P:39169 Avg QP:18.40 size: 22844
    x264 info: frame B:103134 Avg QP:20.15 size: 7547

    MI
    Format : Matroska
    Format version : Version 4 / Version 2
    File size : 2.21 GiB
    Duration : 1h 39mn
    Overall bit rate : 3 178 Kbps
    Movie name : -=MediaClub-Odessit=-
    Encoded date : UTC 2013-10-20 05:38:08
    Writing application : mkvmerge v6.2.0 (;Promised Land;) built on Apr 28 2013 12:22:01
    Writing library : libebml v1.3.0 libmatroska v1.4.0

    Video
    ID : 1
    Format : AVC
    Format/Info : Advanced Video Codec
    Format profile : High@L4.1
    Format settings, CABAC : Yes
    Format settings, ReFrames : 9 frames
    Codec ID : V_MPEG4/ISO/AVC
    Duration : 1h 39mn
    Bit rate : 2 350 Kbps
    Width : 1 024 pixels
    Height : 576 pixels
    Display aspect ratio : 16:9
    Frame rate : 23.976 fps
    Color space : YUV
    Chroma subsampling : 4:2:0
    Bit depth : 8 bits
    Scan type : Progressive
    Bits/(Pixel*Frame) : 0.166
    Stream size : 1.59 GiB (72%)
    Writing library : x264 core 133 r2334 a3ac64b
    Encoding settings : cabac=1 / ref=9 / deblock=1:-2:-2 / analyse=0x3:0x133 / me=umh / subme=11 / psy=1 / psy_rd=1.00:0.20 / mixed_ref=1 / me_range=48 / chroma_me=1 / trellis=2 / 8x8dct=1 / cqm=0 / deadzone=21,11 / fast_pskip=0 / chroma_qp_offset=-3 / threads=6 / lookahead_threads=1 / sliced_threads=0 / nr=0 / decimate=0 / interlaced=0 / bluray_compat=0 / constrained_intra=0 / bframes=9 / b_pyramid=2 / b_adapt=2 / b_bias=0 / direct=3 / weightb=1 / open_gop=0 / weightp=2 / keyint=240 / keyint_min=23 / scenecut=40 / intra_refresh=0 / rc=2pass / mbtree=0 / bitrate=2350 / ratetol=1.0 / qcomp=0.60 / qpmin=0 / qpmax=69 / qpstep=4 / cplxblur=20.0 / qblur=0.5 / ip_ratio=1.40 / pb_ratio=1.30 / aq=1:1.00
    Language : English

    Audio #1
    ID : 2
    Format : AC-3
    Format/Info : Audio Coding 3
    Mode extension : CM (complete main)
    Codec ID : A_AC3
    Duration : 1h 39mn
    Bit rate mode : Constant
    Bit rate : 384 Kbps
    Channel(s) : 6 channels
    Channel positions : Front: L C R, Side: L R, LFE
    Sampling rate : 48.0 KHz
    Bit depth : 16 bits
    Compression mode : Lossy
    Stream size : 274 MiB (12%)
    Title : iTunes
    Language : Russian

    Audio #2
    ID : 3
    Format : AC-3
    Format/Info : Audio Coding 3
    Mode extension : CM (complete main)
    Codec ID : A_AC3
    Duration : 1h 39mn
    Bit rate mode : Constant
    Bit rate : 448 Kbps
    Channel(s) : 6 channels
    Channel positions : Front: L C R, Side: L R, LFE
    Sampling rate : 48.0 KHz
    Bit depth : 16 bits
    Compression mode : Lossy
    Stream size : 319 MiB (14%)
    Language : English

    Text
    ID : 4
    Format : UTF-8
    Codec ID : S_TEXT/UTF8
    Codec ID/Info : UTF-8 Plain Text
    Language : English

    Скриншоты


    Релиз от:
    Размер: 2.21 GB (2376663984 Bytes)

    Ночь страха 2 / Fright Night 2 (2013) BDRip (AVC) от MediaClub | P скачать через торрент бесплатно
    загрузка...
    Рейтинг →
     (голосов: 1, оценка 5/5, голосовать можно 1 раз )

    Другие торренты по теме:

  • Ночь страха / Fright Night (2011) HDRip-AVC | D торрент скачать бесплатно
  • Ночь страха 2 / Fright Night 2 (2013) BDRip 720p | L1 торрент скачать бесплатно
  • Ночь страха 2 / Fright Night 2 (2013) HDRip | L1 торрент скачать бесплатно
  • Ночь страха 2 / Fright Night 2 (2013) DVDRip | L1 торрент скачать бесплатно
  • Ночь страха 2 / Fright Night 2 (2013) HDRip | L2 скачать через торрент бесплатно
  • Ночь страха 2 / Fright Night 2 (2013) BDRip 720p | L2, L1 скачать через торрент бесплатно
  • Ночь страха 2 / Fright Night 2 (2013) BDRip 720p | L2 торрент скачать бесплатно
  • Ночь страха 2 / Fright Night 2 (2013) BDRip 720p | iTunes торрент скачать бесплатно


    • Комментарии (0):

      Информация

      Информация

        Посетители, находящиеся в группе Гости, не могут оставлять комментарии в данной новости.

        ↓ Меню



        ↓ Опрос

        А Вы добавили сайт в закладки?
        Да
        Не


        Top 10 за неделю (Фильмы)