.
Авторизация | Регистрация
» » Планета страха / Planet Terror (2007) DVD9 DVD5 | D торрент скачать бесплатно




    Планета страха / Planet Terror (2007) DVD9 DVD5 | D торрент скачать бесплатно

    Опубликовал: Админ | Дата: 27-02-2015, 11:09 | Просмотров: 311



    Детально о кино
    Русское название: Планета страха
    Русское название в мировом прокате: Planet Terror
    Создали в: 2007
    Категория жанра: ужасы, фантастика, боевик, триллер, комедия, приключения
    Главный режиссер: Роберт Родригес
    Актеры: Роуз МакГоун, Фредди Родригес, Марли Шелтон, Джош Бролин, Майкл Бин, Джефф Фэйи, Навин Эндрюс, Майкл Паркс, Брюс Уиллис, Том Савини

    Сюжет фильма:
    Полиция крохотного городка вынуждена иметь дело с жертвами смертельного вируса, превращающего людей в зомби. Народное ополчение возглавляет Черри с автоматом вместо ножного протеза и владеющий боевыми искусствами Врэй.




    Снималось в: США
    Киностудия: Dimension Films, Rodriguez International Pictures, The Weinstein Company LLC, Troublemaker Studios
    Время просмотра: 95 мин. / 01:35
    Перевод текста: профессиональный (полное дублирование)

    Файл
    Кодек для видео: MPEG2
    Качество фильма: DVD9 DVD5
    Информация о видео: PAL 16:9 (720x576) VBR 5579 Kbps, 25.000 fps
    Информация о звуке 1: Dolby AC3, 6 ch, 48.0 KHz, 384 Kbps русский, английский
    Информация о звуке 2: DTS 6 ch, 48.0 KHz, 1510 Kbps русский
    Субтитры: русские, украинские
    Бонус-Диск: Comic Con 2006; Школа киноискусства; Дрянные девчонки; Крутые парни; Кастинг Ребела; Зомби, пули и взрывчатка; Друг врач и риэлтор

    Коллекционное издание из 2 дисков: DVD9 с фильмом и DVD5 с бонусами

    MediaInfo
    General
    Complete name : D:Planeta.straha.2DVDDVD9VIDEO_TSVTS_09_1.VOB
    Format : MPEG-PS
    File size : 1 024 MiB
    Duration : 17mn 51s
    Overall bit rate mode : Variable
    Overall bit rate : 8 016 Kbps

    Video
    ID : 224 (0xE0)
    Format : MPEG Video
    Format version : Version 2
    Format profile : Main@Main
    Format settings, BVOP : No
    Format settings, Matrix : Custom
    Format settings, GOP : M=3, N=12
    Duration : 17mn 51s
    Bit rate mode : Variable
    Bit rate : 5 579 Kbps
    Maximum bit rate : 9 800 Kbps
    Width : 720 pixels
    Height : 576 pixels
    Display aspect ratio : 16:9
    Frame rate : 25.000 fps
    Standard : PAL
    Color space : YUV
    Chroma subsampling : 4:2:0
    Bit depth : 8 bits
    Scan type : Interlaced
    Scan order : Top Field First
    Compression mode : Lossy
    Bits/(Pixel*Frame) : 0.538
    Time code of first frame : 00:00:00:00
    Time code source : Group of pictures t_head
    Stream size : 713 MiB (70%)

    Audio #1
    ID : 189 (0xBD)-128 (0x80)
    Format : AC-3
    Format/Info : Audio Coding 3
    Mode extension : CM (complete main)
    Format settings, Endianness : Big
    Muxing mode : DVD-Video
    Duration : 17mn 51s
    Bit rate mode : Constant
    Bit rate : 384 Kbps
    Channel count : 6 channels
    Channel positions : Front: L C R, Side: L R, LFE
    Sampling rate : 48.0 KHz
    Bit depth : 16 bits
    Compression mode : Lossy
    Stream size : 49.0 MiB (5%)

    Audio #2
    ID : 189 (0xBD)-129 (0x81)
    Format : AC-3
    Format/Info : Audio Coding 3
    Mode extension : CM (complete main)
    Format settings, Endianness : Big
    Muxing mode : DVD-Video
    Duration : 17mn 51s
    Bit rate mode : Constant
    Bit rate : 384 Kbps
    Channel count : 6 channels
    Channel positions : Front: L C R, Side: L R, LFE
    Sampling rate : 48.0 KHz
    Bit depth : 16 bits
    Compression mode : Lossy
    Stream size : 49.0 MiB (5%)

    Audio #3
    ID : 189 (0xBD)-138 (0x8A)
    Format : DTS
    Format/Info : Digital Theater Systems
    Mode : 16
    Format settings, Endianness : Big
    Muxing mode : DVD-Video
    Duration : 17mn 51s
    Bit rate mode : Constant
    Bit rate : 1 510 Kbps
    Channel count : 6 channels
    Channel positions : Front: L C R, Side: L R, LFE
    Sampling rate : 48.0 KHz
    Bit depth : 24 bits
    Compression mode : Lossy
    Stream size : 193 MiB (19%)

    Text #1
    ID : 189 (0xBD)-32 (0x20)
    Format : RLE
    Format/Info : Run-length encoding
    Muxing mode : DVD-Video

    Text #2
    ID : 189 (0xBD)-33 (0x21)
    Format : RLE
    Format/Info : Run-length encoding
    Muxing mode : DVD-Video

    Menu

    Скриншоты для ознакомления

    Залил: carisha
    Размер скачиваемого торрента: 10.97 GB (11777966080 Bytes)

    Планета страха / Planet Terror (2007) DVD9 DVD5 | D торрент скачать бесплатно
    загрузка...
    Рейтинг →
     (голосов: 1, оценка 5/5, голосовать можно 1 раз )

    Другие торренты по теме:

  • Планета Страха / Planet Terror (2007) HDRip от Scarabey торрент скачать бесплатно
  • Планета Страха / Planet Terror (2007) HDRip от Scarabey торрент скачать бесплатно
  • Планета страха / Planet Terror (2007) BDRip-AVC от Leo.pard | D скачать через торрент бесплатно
  • Планета страха / Planet Terror (2007) BDRip 1080p от Переулка Переводмана | Scratch Free Clean Version | D, P, A скачать торрент бесплатно


    • Комментарии (0):

      Информация

      Информация

        Посетители, находящиеся в группе Гости, не могут оставлять комментарии в данной новости.

        ↓ Меню



        ↓ Опрос

        А Вы добавили сайт в закладки?
        Да
        Не


        Top 10 за неделю (Фильмы)