.
Авторизация | Регистрация
» » Бунтарь без идеала / Rebel Without a Cause (1955) BDRip (AVC) от MediaClub | P торрент скачать бесплатно




    Бунтарь без идеала / Rebel Without a Cause (1955) BDRip (AVC) от MediaClub | P торрент скачать бесплатно

    Опубликовал: Админ | Дата: 27-02-2015, 11:09 | Просмотров: 308



    Детально о кино
    Русское название: Бунтарь без идеала
    Русское название в мировом прокате: Rebel Without a Cause
    Создали в: 1955
    Категория жанра: Драма, мелодрама
    Главный режиссер: Николас Рэй
    Актеры: Джеймс Дин, Натали Вуд, Сэл Минео, Джим Бэкус, Энн Доран, Кори Аллен, Уильям Хоппер, Рошель Хадсон, Деннис Хоппер, Эдвард Платт, Штеффи Сидни, Мариэтта Кэнти, Вирджиния Бриссак, Беверли Лонг, Йэн Вулф, Роберт Фоулк, Ник Адамс

    Сюжет фильма:
    Шалопай и сорвиголова Джим Старк постоянно посещает новые школы, так как его отовсюду исключают. Вот и теперь, в очередной раз сменив место жительства, он вынужден вливаться в коллектив, обзаводясь друзьями и врагами. А ещё Джим знакомится с замечательной девушкой по имени Джуди, моментально почувствовав ответную симпатию. Только вот между ними возникает фигура её бывшего парня, База Гандерсона, и своим поведением Джуди вольно или невольно провоцирует соперников на поединок. Дуэль неизбежна, примет ли она форму смертельно опасного состязания на автомобилях или отчаянной драки на ножах…



    Снималось в: США / Warner Bros. Pictures
    Время просмотра: 01:50:56
    Перевод текста: Профессиональный многоголосый

    Файл
    Кодек для видео: x264
    Качество фильма: BDRip (AVC)
    Информация о видео: MPEG-4 AVC, 2046 Кбит/с, 1024x402, 23.976 кадр/с
    Информация о звуке #1: Русский (AC3, 6 ch, 384 Кбит/с) / Профессиональный многоголосый
    Информация о звуке #2: Английский (AC3, 6 ch, 384 Кбит/с)
    Субтитры: Английские

    Семпл


    MI
    Format : Matroska
    Format version : Version 4 / Version 2
    File size : 2.18 GiB
    Duration : 1h 50mn
    Overall bit rate : 2 816 Kbps
    Movie name : -=MediaClub-Odessit=-
    Encoded date : UTC 2013-10-23 16:11:28
    Writing application : mkvmerge v6.2.0 (;Promised Land;) built on Apr 28 2013 12:22:01
    Writing library : libebml v1.3.0 libmatroska v1.4.0

    Video
    ID : 1
    Format : AVC
    Format/Info : Advanced Video Codec
    Format profile : High@L4.1
    Format settings, CABAC : Yes
    Format settings, ReFrames : 9 frames
    Codec ID : V_MPEG4/ISO/AVC
    Duration : 1h 50mn
    Bit rate : 2 046 Kbps
    Width : 1 024 pixels
    Height : 402 pixels
    Display aspect ratio : 2.547
    Frame rate : 23.976 fps
    Color space : YUV
    Chroma subsampling : 4:2:0
    Bit depth : 8 bits
    Scan type : Progressive
    Bits/(Pixel*Frame) : 0.207
    Stream size : 1.54 GiB (71%)
    Writing library : x264 core 133 r2334 a3ac64b
    Encoding settings : cabac=1 / ref=9 / deblock=1:-3:-3 / analyse=0x3:0x133 / me=umh / subme=11 / psy=1 / psy_rd=1.00:0.20 / mixed_ref=1 / me_range=48 / chroma_me=1 / trellis=2 / 8x8dct=1 / cqm=0 / deadzone=21,11 / fast_pskip=0 / chroma_qp_offset=-3 / threads=6 / lookahead_threads=1 / sliced_threads=0 / nr=0 / decimate=0 / interlaced=0 / bluray_compat=0 / constrained_intra=0 / bframes=9 / b_pyramid=2 / b_adapt=2 / b_bias=0 / direct=3 / weightb=1 / open_gop=0 / weightp=2 / keyint=240 / keyint_min=23 / scenecut=40 / intra_refresh=0 / rc=2pass / mbtree=0 / bitrate=2046 / ratetol=1.0 / qcomp=0.60 / qpmin=0 / qpmax=69 / qpstep=4 / cplxblur=20.0 / qblur=0.5 / ip_ratio=1.40 / pb_ratio=1.30 / aq=1:1.00
    Language : English

    Audio #1
    ID : 2
    Format : AC-3
    Format/Info : Audio Coding 3
    Mode extension : CM (complete main)
    Codec ID : A_AC3
    Duration : 1h 50mn
    Bit rate mode : Constant
    Bit rate : 384 Kbps
    Channel(s) : 6 channels
    Channel positions : Front: L C R, Side: L R, LFE
    Sampling rate : 48.0 KHz
    Bit depth : 16 bits
    Compression mode : Lossy
    Stream size : 305 MiB (14%)
    Title : MVO
    Language : Russian

    Audio #2
    ID : 3
    Format : AC-3
    Format/Info : Audio Coding 3
    Mode extension : CM (complete main)
    Codec ID : A_AC3
    Duration : 1h 50mn
    Bit rate mode : Constant
    Bit rate : 384 Kbps
    Channel(s) : 6 channels
    Channel positions : Front: L C R, Side: L R, LFE
    Sampling rate : 48.0 KHz
    Bit depth : 16 bits
    Compression mode : Lossy
    Stream size : 305 MiB (14%)
    Language : English

    Text
    ID : 4
    Format : UTF-8
    Codec ID : S_TEXT/UTF8
    Codec ID/Info : UTF-8 Plain Text
    Language : English

    x264 log
    ---Information 23.10.2013 13:41:34 x264 info: frame I:1064 Avg QP:14.38 size: 62475
    ---Information 23.10.2013 13:41:34 x264 info: frame P:31899 Avg QP:17.27 size: 22711
    ---Information 23.10.2013 13:41:34 x264 info: frame B:126614 Avg QP:19.16 size: 7198

    Скриншоты для ознакомления


    Релиз подготовил:
    Размер скачиваемого торрента: 2.18 GB (2342972653 Bytes)

    Бунтарь без идеала / Rebel Without a Cause (1955) BDRip (AVC) от MediaClub | P торрент скачать бесплатно
    загрузка...
    Рейтинг →
     (голосов: 1, оценка 4/5, голосовать можно 1 раз )

    Другие торренты по теме:

  • Бунтарь без идеала / Rebel Without a Cause (1955) BDRip от MediaClub | P торрент скачать бесплатно
  • Бунтарь без идеала / Rebel Without a Cause (1955) BDRip 720p | P, P2 скачать торрент бесплатно


    • Комментарии (0):

      Информация

      Информация

        Посетители, находящиеся в группе Гости, не могут оставлять комментарии в данной новости.

        ↓ Меню



        ↓ Опрос

        А Вы добавили сайт в закладки?
        Да
        Не


        Top 10 за неделю (Фильмы)