.
Авторизация | Регистрация
» » Великий мастер / Yi dai zong shi (2013) BDRip 1080p | Сербин торрент скачать бесплатно




    Великий мастер / Yi dai zong shi (2013) BDRip 1080p | Сербин торрент скачать бесплатно

    Опубликовал: Админ | Дата: 27-02-2015, 11:09 | Просмотров: 354



    Детально о кино
    Русское название: Великий мастер
    Русское название в мировом прокате: Yi dai zong shi / The Grandmaster
    Создали в: 2013
    Категория жанра: Боевик, драма, биография
    Главный режиссер: Кар Вай Вонг
    Актеры: Цзыи Чжан, Тони Люн Чу Вай, Кунг Ле, Сон Хё-гю, Чжан Чжэнь, Ву-Пин Юэнь, Сю-Люн Люн, Чеунг-Ян Юэнь, Элвис Цуй, Менг Ло

    Сюжет фильма:
    Основатель старейшей Школы боевых искусств намерен уйти на покой и передать дела достойному преемнику. Но самый лучший его ученик вынашивает куда более амбициозные планы - он намерен объединить все разрозненные школы в одну. С этой целью он вызывает на поединок лидера каждой школы и, одерживая победу раз за разом, объединяет все школы. Последней остается школа его умершего учителя, отстоять память которого на поединок выходит его дочь, тайно влюбленная в своего соперника...

    Интересно

    • Для подготовки к своей роли Тони Люн Чу Вай тренировался в течение года по четыре часа в день.
    • Проект был анонсирован почти за 10 лет до его релиза. Такая задержка была вызвана бесконечным перфекционизмом режиссера Вонга Кар-Вая. За этот период было выпущено несколько фильмов об Ип Мане (наиболее известные из них — Ип Ман, 2008, и Ип Ман 2, 2010).
    • На монтаж фильма ушло более года, прежде чем режиссер Вонг Кар-Вай был удовлетворен.


    Снималось в: Гонконг, Китай, США
    Время просмотра: 02:10:07
    Перевод текста: Авторский одноголосый закадровый, Ю.Сербин

    Файл
    Кодек для видео: x264 High@L4.1
    Качество фильма: BDRip 1080p chp@CHD
    Информация о видео: 1920x804, 16:9, 9145 kbps, 24 fps
    Информация о звуке:
    Аудио Rus: DTS, 6 ch, 48 kHz, 1536 kbps |Одноголосый закадровый, Ю.Сербин|
    Аудио Chi: DTS, 6 ch, 48 kHz, 768 kbps |Chinese (Cantonese)|
    Субтитры: Английский
    Скрытый текст

    Сохранены оригинальные чаптеры как на Blu-ray.
    Перевод Ю.Сербина осуществлен в рамках сервиса Озвучивание. Благодарим: xRym, tambov68, Luka69, zlodei24, RAUL и пользователей форума e180.ru: fen, Guyver, Jiraya87, denis_mgn_1987, xerman13, safreks, rammzez, Werewolf77, carnivale, ZeDOK, vik19662007, pestel, STONECOLD, KINOGON.
    Дорожка №1 получена наложением чистого голоса на центр декодированной оригинальной дорожки DTS-HD MA. Наложение голоса проводилось пофразово, с оптимальным размещением фраз перевода и поэпизодной настройкой уровня.
    За основу взят гонконгский BD. Он на 8 минут длиннее европейской версии, которая вышла на российском диске, соответственно, русский дубляж не подошел.
    Юрий перевел фильм по очень подробным английским субтитрам к китайскому WEB-Rip 25 fps, поэтому фразы местами значительно длиннее оригинала.


    MI

    Общее
    Уникальный идентификатор : 175577630249926117609416958921728318183 (0x841705855E46E335869FCD7B998FDAE7)
    Полное имя : The.Grandmaster.2013.BluRay.1080p.x264-CHD.mkv
    Формат : Matroska
    Версия формата : Version 4 / Version 2
    Размер файла : 10,4 Гбайт
    Продолжительность : 2 ч. 10 м.
    Общий поток : 11,4 Мбит/сек
    Название фильма : Created by DeathN2 for Кинозал.ТВ
    Дата кодирования : UTC 2013-10-22 16:02:05
    Программа кодирования : mkvmerge v6.5.0 (;Isn;t she lovely;) built on Oct 20 2013 12:50:05
    Библиотека кодирования : libebml v1.3.0 libmatroska v1.4.1

    Видео
    Идентификатор : 1
    Формат : AVC
    Формат/Информация : Advanced Video Codec
    Профиль формата : High@L4.1
    Параметр CABAC формата : Да
    Параметр ReFrames формата : 5 кадров
    Идентификатор кодека : V_MPEG4/ISO/AVC
    Продолжительность : 2 ч. 10 м.
    Битрейт : 9145 Кбит/сек
    Ширина : 1920 пикселей
    Высота : 804 пикселя
    Соотношение сторон : 2,40:1
    Режим частоты кадров : Постоянный
    Частота кадров : 24,000 кадра/сек
    Цветовое пространство : YUV
    Субдискретизация насыщенности : 4:2:0
    Битовая глубина : 8 бит
    Тип развёртки : Прогрессивная
    Бит/(Пиксели*Кадры) : 0.247
    Размер потока : 8,10 Гбайт (78%)
    Заголовок : The.Grandmaster.2013.BluRay.1080p.DTS.x264-CHD
    Библиотека кодирования : x264 core 125 r2208 d9d2288
    Настройки программы : cabac=1 / ref=5 / deblock=1:-3:-3 / analyse=0x3:0x113 / me=umh / subme=10 / psy=1 / psy_rd=1.00:0.05 / mixed_ref=1 / me_range=32 / chroma_me=1 / trellis=2 / 8x8dct=1 / cqm=0 / deadzone=21,11 / fast_pskip=0 / chroma_qp_offset=-2 / threads=8 / lookahead_threads=1 / sliced_threads=0 / nr=0 / decimate=1 / interlaced=0 / bluray_compat=0 / constrained_intra=0 / bframes=4 / b_pyramid=2 / b_adapt=2 / b_bias=0 / direct=3 / weightb=1 / open_gop=0 / weightp=2 / keyint=250 / keyint_min=24 / scenecut=40 / intra_refresh=0 / rc=2pass / mbtree=0 / bitrate=9145 / ratetol=1.0 / qcomp=0.70 / qpmin=0 / qpmax=69 / qpstep=4 / cplxblur=20.0 / qblur=0.5 / ip_ratio=1.40 / pb_ratio=1.30 / aq=2:1.00
    Язык : Chinese
    Default : Да
    Forced : Нет

    Аудио #1

    Идентификатор : 2
    Формат : DTS
    Формат/Информация : Digital Theater Systems
    Режим : 16
    Параметр Endianness формата : Big
    Идентификатор кодека : A_DTS
    Продолжительность : 2 ч. 10 м.
    Вид битрейта : Постоянный
    Битрейт : 1509 Кбит/сек
    Каналы : 6 каналов
    Расположение каналов : Front: L C R, Side: L R, LFE
    Частота : 48,0 КГц
    Битовая глубина : 16 бит
    Метод сжатия : С потерями
    Размер потока : 1,37 Гбайт (13%)
    Заголовок : AVO
    Язык : Russian
    Default : Да
    Forced : Нет

    Аудио #2
    Идентификатор : 3
    Формат : DTS
    Формат/Информация : Digital Theater Systems
    Режим : 16
    Параметр Endianness формата : Big
    Идентификатор кодека : A_DTS
    Продолжительность : 2 ч. 10 м.
    Вид битрейта : Постоянный
    Битрейт : 768 Кбит/сек
    Каналы : 6 каналов
    Расположение каналов : Front: L C R, Side: L R, LFE
    Частота : 48,0 КГц
    Битовая глубина : 24 бит
    Метод сжатия : С потерями
    Размер потока : 715 Мбайт (7%)
    Заголовок : Cantonese
    Язык : Chinese
    Default : Нет
    Forced : Нет

    Текст
    Идентификатор : 4
    Формат : UTF-8
    Идентификатор кодека : S_TEXT/UTF8
    Идентификатор кодека/Информация : UTF-8 Plain Text
    Заголовок : Eng
    Язык : English
    Default : Нет
    Forced : Нет

    Меню
    00:00:00.000 : :Chapter 01
    00:10:30.125 : :Chapter 02
    00:22:23.166 : :Chapter 03
    00:36:57.291 : :Chapter 04
    00:44:07.041 : :Chapter 05
    00:53:50.291 : :Chapter 06
    01:05:19.791 : :Chapter 07
    01:12:06.125 : :Chapter 08
    01:17:31.791 : :Chapter 09
    01:26:39.750 : :Chapter 10
    01:39:31.541 : :Chapter 11
    01:55:53.375 : :Chapter 12
    02:10:06.041 : :Chapter 13

    Скриншоты для ознакомления

    Размер скачиваемого торрента: 10.38 GB (11144438106 Bytes)

    Великий мастер / Yi dai zong shi (2013) BDRip 1080p | Сербин торрент скачать бесплатно
    загрузка...
    Рейтинг →
     (голосов: 1, оценка 5/5, голосовать можно 1 раз )

    Другие торренты по теме:

  • Великие мастера / Yi dai zong shi (2012) WEBRip | L1 торрент скачать бесплатно
  • Великий мастер / The Grandmaster / Yi dai zong shi (2013) HDRip | L1 торрент скачать бесплатно
  • Великий мастер / The Grandmaster / Yi dai zong shi (2013) BDRip от HQCLUB | Лицензия скачать через торрент бесплатно
  • Великий мастер / Yi dai zong shi (2013) BDRip 720p | Сербин скачать через торрент бесплатно
  • Великий мастер / Yi dai zong shi (2013) Blu-Ray Remux 1080p от HDClub | Сербин скачать через торрент бесплатно
  • Великий мастер / Yi dai zong shi (2013) HDRip от InterCinema | Сербин торрент скачать бесплатно
  • Великий мастер / Yi dai zong shi (2013) BDRip 720p | HK Transfer | A скачать через торрент бесплатно
  • Великий мастер / Yi dai zong shi (2013) BDRip-AVC от Rulya74 | A торрент скачать бесплатно


    • Комментарии (0):

      Информация

      Информация

        Посетители, находящиеся в группе Гости, не могут оставлять комментарии в данной новости.

        ↓ Меню



        ↓ Опрос

        А Вы добавили сайт в закладки?
        Да
        Не


        Top 10 за неделю (Фильмы)