.
Авторизация | Регистрация
Хочешь лучшие торренты? Добавь свой email!
Добавить
» » Мерцающий / The Glimmer Man (1996) WEB-DLRip от Leon-masl скачать через торрент бесплатно




    Мерцающий / The Glimmer Man (1996) WEB-DLRip от Leon-masl скачать через торрент бесплатно

    Опубликовал: Админ | Дата: 27-02-2015, 11:09 | Просмотров: 382



    Детально о кино
    Русское название: Мерцающий
    Русское название в мировом прокате: The Glimmer Man
    Создали в: 1996
    Категория жанра: Боевик, триллер, комедия, драма, криминал
    Главный режиссер: Джон Грэй
    Актеры: Стивен Сигал, Кинен Айвори Уайанс, Боб Гантон, Брайан Кокс, Джон М. Джексон, Мишель Джонсон, Стивен Тоболовски, Питер Джейсон, Райан Кутрона, Ричард Гант, Роберт Мейлхаус, Джонни Стронг, Джесси Сток, Алекса Вега, Никки Кокс, Уэнди Роби, Харрис Ласкауэй, Дэннис Кокрум, Блейк Линдсли, Джон Блуто, Сид Конрад, Джордж Фишер, Майкл Брайан Френч, Виктор Иванов, Стивен Миллс, Биби Остерволд, Джордж Кутс, Сьюзэн Рено, Фреда Фо Шен, Ричард Тэннер, Пол Рэси, Кевин Уайт, Эллис Уильямс, Роберт Аписа

    Сюжет фильма:
    Перед полицейским управлением Лос-Анджелеса поставлена задача: найти и обезвредить преступника, на счету которого немало жертв. Непосредственно по следу убийцы идут два сыщика: Джек Коул и Джим Кэмпбелл. В таком ответственном и рискованном деле, как охота на убийцу, от партнера зависит многое, а иногда все. Однако именно эти двое полицейских решительно неспособны понять друг друга. Суровый и немногословный Коул, воспитанный на восточной философии и боевых искусствах, не может не удивляться своему напарнику, балагуру и шутнику. А Кэмпбелла, как человека здравомыслящего и житейски опытного, раздражает постоянная склонность партнера к мордобою и прочим резким действиям. Порой ему вообще начинает казаться, что преступник, которого они ищут, не кто иной, как его напарник Коул.




    Снималось в: США
    Время просмотра: 01:31:21
    Перевод текста: Профессиональный (Дублированный) Варус Видео

    Файл
    Кодек для видео: XviD
    Качество фильма: WEB-DLRip
    Информация о видео: 720x400, 23.976 fps, 2081 Kbps
    Информация о звуке: АС3, 2 ch, 192 kbps, 48.000 kbps
    MI
    Общее
    Полное имя : The.Glimmer.Man.1996.WEB-DLRip.avi
    Формат : AVI
    Формат/Информация : Audio Video Interleave
    Размер файла : 1,46 Гбайт
    Продолжительность : 1 ч. 31 м.
    Общий поток : 2283 Кбит/сек
    Программа кодирования : VirtualDubMod 1.5.10.2 (build 2542/release)
    Библиотека кодирования : VirtualDubMod build 2542/release

    Видео
    Идентификатор : 0
    Формат : MPEG-4 Visual
    Профиль формата : Advanced Simple@L5
    Параметр BVOP формата : 1
    Параметр QPel формата : Нет
    Параметр GMC формата : Без точки перехода
    Параметр матрицы формата : Выборочная
    Идентификатор кодека : XVID
    Идентификатор кодека/Подсказка : XviD
    Продолжительность : 1 ч. 31 м.
    Битрейт : 2081 Кбит/сек
    Ширина : 720 пикс.
    Высота : 400 пикс.
    Соотношение сторон : 16:9
    Частота кадров : 23,976 кадр/сек
    Цветовое пространство : YUV
    Подвыборка цветности : 4:2:0
    Битовая глубина : 8 бит
    Тип развёртки : Прогрессивная
    Метод сжатия : С потерями
    Бит/(Пиксели*Кадры) : 0.301
    Размер потока : 1,33 Гбайт (91%)
    Библиотека кодирования : XviD 73

    Аудио
    Идентификатор : 1
    Формат : AC-3
    Формат/Информация : Audio Coding 3
    Расширение режима : CM (complete main)
    Идентификатор кодека : 2000
    Продолжительность : 1 ч. 31 м.
    Вид битрейта : Постоянный
    Битрейт : 192 Кбит/сек
    Канал(ы) : 2 канала(ов)
    Расположение каналов : Front: L R
    Частота : 48,0 КГц
    Битовая глубина : 16 бит
    Метод сжатия : С потерями
    Размер потока : 125 Мбайт (8%)
    Выравнивание : Разделение по промежуткам
    Продолжительность промежутка : 42 мс. (1,00 видеокадр)
    Время предзагрузки промежутка : 500 ms
    Скриншоты для ознакомления


    Релиз подготовил: Leon-masl
    Залил: leon-masl
    Размер скачиваемого торрента: 1.46 GB (1564067840 Bytes)

    Мерцающий / The Glimmer Man (1996) WEB-DLRip от Leon-masl скачать через торрент бесплатно
    загрузка...
    Рейтинг →
     (голосов: 1, оценка 5/5, голосовать можно 1 раз )

    Другие торренты по теме:

  • Мерцающий / The Glimmer Man (1996) HDTVRip


    • Комментарии (0):

      Информация

      Информация

        Посетители, находящиеся в группе Гости, не могут оставлять комментарии в данной новости.

        ↓ Меню



        ↓ Опрос

        А Вы добавили сайт в закладки?
        Да
        Не


        Top 10 за месяц (Фильмы)