.
Авторизация | Регистрация
Хочешь лучшие торренты? Добавь свой email!
Добавить
» » Учитель английского / The English Teacher (2013) BDRip 1080p | P | Лицензия скачать через торрент бесплатно




    Учитель английского / The English Teacher (2013) BDRip 1080p | P | Лицензия скачать через торрент бесплатно

    Опубликовал: Админ | Дата: 27-02-2015, 11:09 | Просмотров: 240



    Детально о кино
    Русское название: Учитель английского
    Русское название в мировом прокате: The English Teacher
    Создали в: 2013
    Категория жанра: Комедия, драма
    Снималось в: США, Artina Films
    Главный режиссер: Крейг Зиск
    Актеры: Джулианна Мур, Майкл Ангарано, Грег Киннер, Лили Коллинз, Фиона Шоу, Норберт Лео Батц, Джессика Хехт, Чарли Сэкстон, Натан Лэйн, Никки Блонски, Софи Кертис

    Сюжет фильма: Линда Синклер — учительница английского языка в средней школе маленького городка Кингстон, штат Пенсильвания. Линда вкладывает душу в свой предмет и ученикам нравятся её уроки, но она одинока, жизнь её размеренна и лишена ярких событий. Когда её бывший ученик Джейсон Шервуд возвращается домой из Нью-Йорка, не добившись успеха на поприще драматурга, Линда убеждает его поставить пьесу в родной школе. Но строгий отец Джейсона, доктор Том Шервуд, настаивает, чтобы сын поступил в юридическую школу...



    Файл
    Качество фильма: BDRip (1080p)
    Информация о видео: MPEG-4 AVC, 8684 Кбит/с, 1920x800
    Информация о звуке: Русский (АС3, 6 ch, 448 Кбит/с), (DTS, 6 ch, 755 Кбит/с), английский (DTS, 6 ch, 1509 Кбит/с)
    Размер скачиваемого торрента: 7.3 ГБ
    Время просмотра: 01:31:35
    Перевод текста: Профессиональный многоголосый лицензия

    MediaInfo
    Общее
    Уникальный идентификатор : 191095406475053154043801444109118988848 (0x8FC3A2F55E28476D977CABBD1E69E230)
    Полное имя : D:Uchitel.anglijskogo.2012.P.BDRip.1080p.mkv
    Формат : Matroska
    Версия формата : Version 2
    Размер файла : 7,30 Гбайт
    Продолжительность : 1 ч. 31 м.
    Общий поток : 11,4 Мбит/сек
    Название фильма : The.English.Teacher.2013.BluRay.1080p.DTS.x264-CHD
    Дата кодирования : UTC 2013-10-24 10:53:52
    Программа кодирования : mkvmerge v6.3.0 (;You can;t stop me!;) built on Jun 28 2013 20:09:41
    Библиотека кодирования : libebml v1.3.0 libmatroska v1.4.0

    Видео
    Идентификатор : 1
    Формат : AVC
    Формат/Информация : Advanced Video Codec
    Профиль формата : High@L4.1
    Параметр CABAC формата : Да
    Параметр ReFrames формата : 5 кадров
    Идентификатор кодека : V_MPEG4/ISO/AVC
    Продолжительность : 1 ч. 31 м.
    Битрейт : 8684 Кбит/сек
    Ширина : 1920 пикселей
    Высота : 800 пикселей
    Соотношение сторон : 2,40:1
    Режим частоты кадров : Постоянный
    Частота кадров : 23,976 кадра/сек
    Цветовое пространство : YUV
    Субдискретизация насыщенности : 4:2:0
    Битовая глубина : 8 бит
    Тип развёртки : Прогрессивная
    Бит/(Пиксели*Кадры) : 0.236
    Размер потока : 5,41 Гбайт (74%)
    Заголовок : hahay0yo@CHD
    Библиотека кодирования : x264 core 132 r2310 76a5c3a
    Настройки программы : cabac=1 / ref=5 / deblock=1:-3:-3 / analyse=0x3:0x113 / me=umh / subme=10 / psy=1 / psy_rd=1.00:0.05 / mixed_ref=1 / me_range=32 / chroma_me=1 / trellis=2 / 8x8dct=1 / cqm=0 / deadzone=21,11 / fast_pskip=0 / chroma_qp_offset=-2 / threads=18 / lookahead_threads=1 / sliced_threads=0 / nr=0 / decimate=1 / interlaced=0 / bluray_compat=0 / constrained_intra=0 / bframes=5 / b_pyramid=2 / b_adapt=2 / b_bias=0 / direct=3 / weightb=1 / open_gop=0 / weightp=2 / keyint=250 / keyint_min=23 / scenecut=40 / intra_refresh=0 / rc=2pass / mbtree=0 / bitrate=8684 / ratetol=1.0 / qcomp=0.70 / qpmin=0 / qpmax=69 / qpstep=4 / cplxblur=20.0 / qblur=0.5 / ip_ratio=1.40 / pb_ratio=1.30 / aq=2:1.00
    Язык : English
    Default : Да
    Forced : Нет

    Аудио #1
    Идентификатор : 2
    Формат : DTS
    Формат/Информация : Digital Theater Systems
    Режим : 16
    Параметр Endianness формата : Big
    Идентификатор кодека : A_DTS
    Продолжительность : 1 ч. 31 м.
    Вид битрейта : Постоянный
    Битрейт : 755 Кбит/сек
    Каналы : 6 каналов
    Расположение каналов : Front: L C R, Side: L R, LFE
    Частота : 48,0 КГц
    Битовая глубина : 24 бит
    Метод сжатия : С потерями
    Размер потока : 495 Мбайт (7%)
    Язык : Russian
    Default : Да
    Forced : Нет

    Аудио #2
    Идентификатор : 3
    Формат : AC-3
    Формат/Информация : Audio Coding 3
    Расширение режима : CM (complete main)
    Параметр Endianness формата : Big
    Идентификатор кодека : A_AC3
    Продолжительность : 1 ч. 31 м.
    Вид битрейта : Постоянный
    Битрейт : 448 Кбит/сек
    Каналы : 6 каналов
    Расположение каналов : Front: L C R, Side: L R, LFE
    Частота : 48,0 КГц
    Битовая глубина : 16 бит
    Метод сжатия : С потерями
    Размер потока : 294 Мбайт (4%)
    Язык : Russian
    Default : Нет
    Forced : Нет

    Аудио #3
    Идентификатор : 4
    Формат : DTS
    Формат/Информация : Digital Theater Systems
    Режим : 16
    Параметр Endianness формата : Big
    Идентификатор кодека : A_DTS
    Продолжительность : 1 ч. 31 м.
    Вид битрейта : Постоянный
    Битрейт : 1509 Кбит/сек
    Каналы : 2 канала
    Расположение каналов : Front: L R
    Частота : 48,0 КГц
    Битовая глубина : 24 бит
    Метод сжатия : С потерями
    Размер потока : 991 Мбайт (13%)
    Заголовок : English DTS 5.1 1509Kbps
    Язык : English
    Default : Нет
    Forced : Нет

    Скриншоты для ознакомления



    Размер скачиваемого торрента: 7.30 GB (7834166356 Bytes)

    Учитель английского / The English Teacher (2013) BDRip 1080p | P | Лицензия скачать через торрент бесплатно
    загрузка...
    Рейтинг →
     (голосов: 1, оценка 3/5, голосовать можно 1 раз )

    Другие торренты по теме:

  • Учитель английского / The English Teacher (2013) WEB-DLRip | L1
  • Учитель английского / The English Teacher (2013) Blu-Ray Remux (1080p) | L1
  • Учитель английского / The English Teacher (2013) HDRip от Scarabey | L1 скачать через торрент бесплатно
  • Учитель английского / The English Teacher (2013) HDRip от Scarabey | L1 скачать через торрент бесплатно
  • Учитель английского / The English Teacher (2013) HDRip | Лицензия скачать через торрент бесплатно
  • Учитель английского / The English Teacher (2013) DVD9 | P | Лицензия скачать через торрент бесплатно
  • Учитель английского / The English Teacher (2013) BDRip 720p | P | Лицензия
  • Учитель английского / The English Teacher (2013) DVD5 от Youtracker | сжатый скачать через торрент бесплатно


    • Комментарии (0):

      Информация

      Информация

        Посетители, находящиеся в группе Гости, не могут оставлять комментарии в данной новости.

        ↓ Меню



        ↓ Опрос

        А Вы добавили сайт в закладки?
        Да
        Не


        Top 10 за месяц (Фильмы)