.
Авторизация | Регистрация
» » Копы в юбках / The Heat (2013) BDRip 1080p от MULTIBITS | UNRATED | iTunes торрент скачать бесплатно




    Копы в юбках / The Heat (2013) BDRip 1080p от MULTIBITS | UNRATED | iTunes торрент скачать бесплатно

    Опубликовал: Админ | Дата: 27-02-2015, 11:09 | Просмотров: 283



    Детально о кино
    Русское название: Копы в юбках
    Русское название в мировом прокате: The Heat
    Создали в: 2013
    Категория жанра: боевик, комедия, криминал
    Главный режиссер: Пол Фиг
    Актеры: Сандра Баллок, Мелисса МакКарти, Кэйтлин Олсен, Таран Киллэм, Томас Ф. Уилсон, Майкл Рапапорт, Демиан Бишир, Тони Хейл, Билли Барр, Энди Бакли

    Сюжет фильма:
    Агенту ФБР и бостонскому полицейскому доверено ответственное задание: выйти на след и обезвредить опасного преступника. И это даже хорошо, что копы — женщины, ведь бандит-то — русский. А непредсказуемости русской смекалки можно противопоставить только столь же непредсказуемую женскую логику.



    Снималось в: США / Twentieth Century Fox Film Corporation, Chernin Entertainment, Dune Entertainment, Dune Entertainment III
    Время просмотра: 02:00:20
    Тип перевода: Дублированное iTunes
    Дополнительно: Сохранены оригинальные чаптеры
    Примечание: UNRATED версия. Длиннее театральной ~ 3 мин. Полный перевод! Расширенные сцены озвучены альтернативным дубляжом.

    Файл
    Тип видео: MKV (x264)
    Качество фильма: BDRip 1080p
    Информация о видео: 10.4 Мбит/с, 1920x800
    Информация о звуке: AC3, 384 Кбит/с (6 ch)

    Семпл



    MI
    Format : Matroska
    Format version : Version 4 / Version 2
    File size : 9.05 GiB
    Duration : 2h 0mn
    Overall bit rate : 10.8 Mbps
    Encoded date : UTC 2013-10-25 10:41:52
    Writing application : mkvmerge v6.4.1 (;Omega Point;) built on Sep 16 2013 22:05:10
    Writing library : libebml v1.3.0 libmatroska v1.4.1

    Video
    ID : 1
    Format : AVC
    Format/Info : Advanced Video Codec
    Format profile : High@L4.1
    Format settings, CABAC : Yes
    Format settings, ReFrames : 5 frames
    Codec ID : V_MPEG4/ISO/AVC
    Duration : 2h 0mn
    Bit rate : 10.4 Mbps
    Width : 1 920 pixels
    Height : 800 pixels
    Display aspect ratio : 2.40:1
    Frame rate mode : Constant
    Frame rate : 23.976 fps
    Color space : YUV
    Chroma subsampling : 4:2:0
    Bit depth : 8 bits
    Scan type : Progressive
    Bits/(Pixel*Frame) : 0.282
    Stream size : 8.55 GiB (94%)
    Writing library : x264 core 138 r2356 a1d3d17
    Encoding settings : cabac=1 / ref=5 / deblock=1:-3:-3 / analyse=0x3:0x113 / me=umh / subme=10 / psy=1 / psy_rd=1.00:0.05 / mixed_ref=1 / me_range=32 / chroma_me=1 / trellis=2 / 8x8dct=1 / cqm=0 / deadzone=21,11 / fast_pskip=0 / chroma_qp_offset=-2 / threads=18 / lookahead_threads=1 / sliced_threads=0 / nr=0 / decimate=1 / interlaced=0 / bluray_compat=0 / constrained_intra=0 / bframes=5 / b_pyramid=2 / b_adapt=2 / b_bias=0 / direct=3 / weightb=1 / open_gop=0 / weightp=2 / keyint=250 / keyint_min=23 / scenecut=40 / intra_refresh=0 / rc=2pass / mbtree=0 / bitrate=10385 / ratetol=1.0 / qcomp=0.70 / qpmin=0 / qpmax=69 / qpstep=4 / cplxblur=20.0 / qblur=0.5 / ip_ratio=1.40 / pb_ratio=1.30 / aq=2:1.00
    Language : English
    Default : Yes
    Forced : No

    Audio
    ID : 2
    Format : AC-3
    Format/Info : Audio Coding 3
    Mode extension : CM (complete main)
    Format settings, Endianness : Big
    Codec ID : A_AC3
    Duration : 2h 0mn
    Bit rate mode : Constant
    Bit rate : 384 Kbps
    Channel count : 6 channels
    Channel positions : Front: L C R, Side: L R, LFE
    Sampling rate : 48.0 KHz
    Bit depth : 16 bits
    Compression mode : Lossy
    Stream size : 331 MiB (4%)
    Language : Russian
    Default : Yes
    Forced : No

    Menu
    00:00:00.000 : en:00:00:00.000
    00:01:46.023 : en:00:01:46.023
    00:05:28.453 : en:00:05:28.453
    00:07:15.977 : en:00:07:15.977
    00:11:26.436 : en:00:11:26.436
    00:14:17.899 : en:00:14:17.899
    00:16:38.956 : en:00:16:38.956
    00:19:50.940 : en:00:19:50.940
    00:23:23.610 : en:00:23:23.610
    00:26:18.118 : en:00:26:18.118
    00:30:11.977 : en:00:30:11.977
    00:34:07.837 : en:00:34:07.837
    00:36:27.101 : en:00:36:27.101
    00:39:12.975 : en:00:39:12.975
    00:44:44.140 : en:00:44:44.140
    00:47:59.585 : en:00:47:59.585
    00:52:59.801 : en:00:52:59.801
    00:56:13.787 : en:00:56:13.787
    01:00:57.779 : en:01:00:57.779
    01:03:25.802 : en:01:03:25.802
    01:05:47.151 : en:01:05:47.151
    01:09:34.795 : en:01:09:34.795
    01:17:00.574 : en:01:17:00.574
    01:23:38.638 : en:01:23:38.638
    01:26:51.623 : en:01:26:51.623
    01:28:37.020 : en:01:28:37.020
    01:31:07.420 : en:01:31:07.420
    01:34:08.559 : en:01:34:08.559
    01:37:03.234 : en:01:37:03.234
    01:39:41.225 : en:01:39:41.225
    01:44:20.671 : en:01:44:20.671
    01:45:41.502 : en:01:45:41.502
    01:48:54.569 : en:01:48:54.569
    01:51:15.710 : en:01:51:15.710
    01:54:02.711 : en:01:54:02.711
    01:55:24.876 : en:01:55:24.876
    Скриншоты для ознакомления


    Релиз подготовил:
    Размер скачиваемого торрента: 9.05 GB (9719724986 Bytes)

    Копы в юбках / The Heat (2013) BDRip 1080p от MULTIBITS | UNRATED | iTunes торрент скачать бесплатно
    загрузка...
    Рейтинг →
     (голосов: 1, оценка 4/5, голосовать можно 1 раз )

    Другие торренты по теме:

  • Голливудские копы / Hollywood Homicide (2003) BDRip от NovaLan торрент скачать бесплатно
  • Копия верна / Certified Copy / Copie conforme (2010) BDRip-AVC от Rulya74 торрент скачать бесплатно
  • Библиотекарь 2: Возвращение в Копи Царя Соломона / The Librarian: Return to King Solomon (2006) BDRemux 1080p от HDTracker торрент скачать бесплатно
  • Библиотекарь: В поисках копья судьбы / The Librarian: Quest for the Spear (2004) BDRemux 1080i от HDTracker торрент скачать бесплатно
  • Копы в глубоком запасе / The Other Guys (2010) HDRip от Scarabey | Театральная версия торрент скачать бесплатно
  • Копы-новобранцы / Rookie Blue (2012) WEB-DLRip | P торрент скачать бесплатно
  • Копы в юбках / The Heat (2013) TS торрент скачать бесплатно
  • Копы в юбках / The Heat (2013) HDTVRip | Звук с TS торрент скачать бесплатно


    • Комментарии (0):

      Информация

      Информация

        Посетители, находящиеся в группе Гости, не могут оставлять комментарии в данной новости.

        ↓ Меню



        ↓ Опрос

        А Вы добавили сайт в закладки?
        Да
        Не


        Top 10 за неделю (Фильмы)