.
Авторизация | Регистрация
» » Жестокая игра / The Crying Game (1992) BDRip от MediaClub | P2, A торрент скачать бесплатно




    Жестокая игра / The Crying Game (1992) BDRip от MediaClub | P2, A торрент скачать бесплатно

    Опубликовал: Админ | Дата: 27-02-2015, 11:09 | Просмотров: 245



    Детально о кино
    Русское название: Жестокая игра
    Русское название в мировом прокате: The Crying Game
    Создали в: 1992
    Категория жанра: Триллер, драма, мелодрама, криминал
    Главный режиссер: Нил Джордан
    Актеры: Форест Уитакер, Миранда Ричардсон, Стивен Ри, Эдриан Данбар, Бреффни МакКенна, Джо Савино, Бёрди Суини, Джей Дэвидсон, Андре Бернард, Джим Бродбент

    Сюжет фильма:
    Британский солдат Джоди, попавший в плен к боевикам Ирландской республиканской армии, подружился с одним из своих тюремщиков Фергюсом. Но их дружба не могла кончиться ничем, кроме трагедии. Получив приказ расстрелять пленника, Фергюс был вынужден подчиниться. Больше он не хочет никого убивать и, покинув бывших товарищей по оружию, уезжает в Лондон. Фергюс должен выполнить последнюю волю Джоди и разыскать его любимую девушку Дил, которую видел на фотографии. Днем эта неотразимо притягательная девушка работает парикмахером, а по вечерам поет в баре. С первой же встречи Фергюс и Дил полюбили друг друга. Она ничего не знает о прошлом Фергюса. Но и Фергюс не знает о Дил кое-что очень важное…



    Снималось в: Япония, Великобритания, British Screen Productions, Channel Four Films, Eurotrustees, Nippon Film Development and Finance Inc., Palace Pictures
    Время просмотра: 01:51:58
    Перевод текста: Профессиональный двухголосый, авторский

    Файл
    Кодек для видео: XviD
    Качество фильма: BDRip
    Информация о видео: XviD, 1653 Кбит/с, 720x304
    Информация о звуке #1: Русский (АС3, 2 ch, 192 Кбит/с) / Профессиональный двухголосый (InterVideo)
    Информация о звуке #2: Русский (АС3, 2 ch, 192 Кбит/с) / Профессиональный двухголосый (Екатеринбург Арт) - отдельно
    Информация о звуке #3: Русский (АС3, 2 ch, 192 Кбит/с) / Авторский одноголосый (Алексей Михалёв) - отдельно
    Информация о звуке #4: Английский (AC3, 6 ch, 448 Кбит/с) - отдельно

    Семпл

    MI
    Format : AVI
    Format/Info : Audio Video Interleave
    File size : 1.45 GiB
    Duration : 1h 51mn
    Overall bit rate : 1 854 Kbps
    Movie name : The.Crying.Game.1992.XviD.BDRip.-MediaClub
    Director : =MediaClub-Odessit=-
    Writing application : VirtualDubMod 1.5.10.3 (build 2550/release)
    Writing library : VirtualDubMod build 2550/release

    Video
    ID : 0
    Format : MPEG-4 Visual
    Format profile : Advanced Simple@L5
    Format settings, BVOP : 1
    Format settings, QPel : No
    Format settings, GMC : No warppoints
    Format settings, Matrix : Custom
    Codec ID : XVID
    Codec ID/Hint : XviD
    Duration : 1h 51mn
    Bit rate : 1 653 Kbps
    Width : 720 pixels
    Height : 304 pixels
    Display aspect ratio : 2.35:1
    Frame rate : 24.000 fps
    Color space : YUV
    Chroma subsampling : 4:2:0
    Bit depth : 8 bits
    Scan type : Progressive
    Compression mode : Lossy
    Bits/(Pixel*Frame) : 0.315
    Stream size : 1.29 GiB (89%)
    Writing library : XviD 73

    Audio
    ID : 1
    Format : AC-3
    Format/Info : Audio Coding 3
    Mode extension : CM (complete main)
    Codec ID : 2000
    Duration : 1h 51mn
    Bit rate mode : Constant
    Bit rate : 192 Kbps
    Channel(s) : 2 channels
    Channel positions : Front: L R
    Sampling rate : 48.0 KHz
    Bit depth : 16 bits
    Compression mode : Lossy
    Stream size : 154 MiB (10%)
    Alignment : Split accross interleaves
    Interleave, duration : 42 ms (1.00 video frame)
    Interleave, preload duration : 500 ms

    Скриншоты для ознакомления


    Релиз подготовил:
    Размер скачиваемого торрента: 2.10 GB (2255953664 Bytes)

    Жестокая игра / The Crying Game (1992) BDRip от MediaClub | P2, A торрент скачать бесплатно
    загрузка...
    Рейтинг →
     (голосов: 1, оценка 4/5, голосовать можно 1 раз )

    Другие торренты по теме:

  • Жестокая игра / The Crying Game (1992) BDRip (AVC) от MediaClub | P2, A торрент скачать бесплатно
  • Жестокая игра / Un jeu brutal (1983) DVDRip скачать через торрент бесплатно
  • Жестокая игра / The Crying Game (1992) BDRip 1080p | P2, A скачать торрент бесплатно
  • Жестокие игры / Cruel Intentions (1999) BDRip-AVC торрент скачать бесплатно
  • Жестокие игры 2: Манчестерская подготовка / Cruel Intentions 2 (2000) DVDRip от Scarabey | Р скачать торрент бесплатно
  • Жестокие игры 2: Манчестерская подготовка / Cruel Intentions 2 (2000) DVDRip от Scarabey | Р скачать торрент бесплатно


    • Комментарии (0):

      Информация

      Информация

        Посетители, находящиеся в группе Гости, не могут оставлять комментарии в данной новости.

        ↓ Меню



        ↓ Опрос

        А Вы добавили сайт в закладки?
        Да
        Не


        Top 10 за неделю (Фильмы)