.
Авторизация | Регистрация
» » Копы в юбках / The Heat (2013) BDRip 1080p от MULTIBITS | Theatrical | iTunes торрент скачать бесплатно




    Копы в юбках / The Heat (2013) BDRip 1080p от MULTIBITS | Theatrical | iTunes торрент скачать бесплатно

    Опубликовал: Админ | Дата: 27-02-2015, 11:09 | Просмотров: 299



    Детально о кино
    Русское название: Копы в юбках
    Русское название в мировом прокате: The Heat
    Создали в: 2013
    Категория жанра: боевик, комедия, криминал
    Главный режиссер: Пол Фиг
    Актеры: Сандра Баллок, Мелисса МакКарти, Кэйтлин Олсен, Таран Киллэм, Томас Ф. Уилсон, Майкл Рапапорт, Демиан Бишир, Тони Хейл, Билли Барр, Энди Бакли

    Сюжет фильма:
    Агенту ФБР и бостонскому полицейскому доверено ответственное задание: выйти на след и обезвредить опасного преступника. И это даже хорошо, что копы — женщины, ведь бандит-то — русский. А непредсказуемости русской смекалки можно противопоставить только столь же непредсказуемую женскую логику.



    Снималось в: США / Twentieth Century Fox Film Corporation, Chernin Entertainment, Dune Entertainment, Dune Entertainment III
    Время просмотра: 01:57:04
    Тип перевода: Дублированное iTunes
    Дополнительно: Сохранены оригинальные чаптеры
    Примечание: Театральная версия. Полный перевод.

    Файл
    Тип видео: MKV (x264)
    Качество фильма: BDRip 1080p
    Информация о видео: 8403 Кбит/с, 1920x800
    Информация о звуке: AC3, 384 Кбит/с (6 ch)

    Семпл



    MI
    Format : Matroska
    Format version : Version 4 / Version 2
    File size : 7.19 GiB
    Duration : 1h 57mn
    Overall bit rate : 8 789 Kbps
    Encoded date : UTC 2013-10-25 06:15:19
    Writing application : mkvmerge v6.4.1 (;Omega Point;) built on Sep 16 2013 22:05:10
    Writing library : libebml v1.3.0 libmatroska v1.4.1

    Video
    ID : 1
    Format : AVC
    Format/Info : Advanced Video Codec
    Format profile : High@L4.1
    Format settings, CABAC : Yes
    Format settings, ReFrames : 5 frames
    Codec ID : V_MPEG4/ISO/AVC
    Duration : 1h 57mn
    Bit rate : 8 403 Kbps
    Width : 1 920 pixels
    Height : 800 pixels
    Display aspect ratio : 2.40:1
    Frame rate mode : Constant
    Frame rate : 23.976 fps
    Color space : YUV
    Chroma subsampling : 4:2:0
    Bit depth : 8 bits
    Scan type : Progressive
    Bits/(Pixel*Frame) : 0.228
    Stream size : 6.73 GiB (94%)
    Writing library : x264 core 138 r2359 704 48 3f879a0 tMod 8-bit@all X86_64
    Encoding settings : cabac=1 / ref=5 / deblock=1:-3:-3 / analyse=0x3:0x133 / me=umh / subme=11 / psy=1 / fade_compensate=0.00 / psy_rd=1.00:0.03 / mixed_ref=1 / me_range=32 / chroma_me=1 / trellis=2 / 8x8dct=1 / cqm=0 / deadzone=21,11 / fast_pskip=0 / chroma_qp_offset=-2 / threads=12 / lookahead_threads=1 / sliced_threads=0 / nr=0 / decimate=0 / interlaced=0 / bluray_compat=0 / constrained_intra=0 / fgo=0 / bframes=8 / b_pyramid=2 / b_adapt=2 / b_bias=0 / direct=3 / weightb=1 / open_gop=0 / weightp=2 / keyint=240 / keyint_min=23 / scenecut=40 / intra_refresh=0 / rc=2pass / mbtree=0 / bitrate=8403 / ratetol=1.0 / qcomp=0.60 / qpmin=0:0:0 / qpmax=69:69:69 / qpstep=4 / cplxblur=20.0 / qblur=0.5 / ip_ratio=1.40 / pb_ratio=1.30 / aq=1:0.80 / aq-sensitivity=10.00 / aq-factor=1.00:1.00:1.00 / aq2=0 / aq3=0
    Language : English
    Default : Yes
    Forced : No

    Audio
    ID : 2
    Format : AC-3
    Format/Info : Audio Coding 3
    Mode extension : CM (complete main)
    Format settings, Endianness : Big
    Codec ID : A_AC3
    Duration : 1h 57mn
    Bit rate mode : Constant
    Bit rate : 384 Kbps
    Channel count : 6 channels
    Channel positions : Front: L C R, Side: L R, LFE
    Sampling rate : 48.0 KHz
    Bit depth : 16 bits
    Compression mode : Lossy
    Stream size : 322 MiB (4%)
    Language : Russian
    Default : Yes
    Forced : Yes

    Menu
    00:00:00.000 : en:Chapter 00
    00:01:46.022 : en:Chapter 01
    00:05:28.453 : en:Chapter 02
    00:07:15.977 : en:Chapter 03
    00:10:48.147 : en:Chapter 04
    00:13:39.610 : en:Chapter 05
    00:16:00.668 : en:Chapter 06
    00:19:05.352 : en:Chapter 07
    00:22:38.023 : en:Chapter 08
    00:25:14.429 : en:Chapter 09
    00:29:08.288 : en:Chapter 10
    00:33:03.815 : en:Chapter 11
    00:35:23.079 : en:Chapter 12
    00:38:08.953 : en:Chapter 13
    00:43:16.051 : en:Chapter 14
    00:46:31.496 : en:Chapter 15
    00:51:31.713 : en:Chapter 16
    00:54:45.698 : en:Chapter 17
    00:59:29.690 : en:Chapter 18
    01:01:57.713 : en:Chapter 19
    01:04:19.063 : en:Chapter 20
    01:08:06.707 : en:Chapter 21
    01:14:16.285 : en:Chapter 22
    01:20:27.322 : en:Chapter 23
    01:23:38.054 : en:Chapter 24
    01:25:23.451 : en:Chapter 25
    01:27:53.893 : en:Chapter 26
    01:30:55.032 : en:Chapter 27
    01:33:49.707 : en:Chapter 28
    01:36:27.698 : en:Chapter 29
    01:41:07.144 : en:Chapter 30
    01:42:27.974 : en:Chapter 31
    01:45:39.165 : en:Chapter 32
    01:48:00.306 : en:Chapter 33
    01:50:47.307 : en:Chapter 34
    01:52:09.472 : en:Chapter 35
    Скриншоты для ознакомления


    Релиз подготовил:
    Размер скачиваемого торрента: 7.19 GB (7717181716 Bytes)

    Копы в юбках / The Heat (2013) BDRip 1080p от MULTIBITS | Theatrical | iTunes торрент скачать бесплатно
    загрузка...
    Рейтинг →
     (голосов: 1, оценка 4/5, голосовать можно 1 раз )

    Другие торренты по теме:

  • Голливудские копы / Hollywood Homicide (2003) BDRip от NovaLan торрент скачать бесплатно
  • Копия верна / Certified Copy / Copie conforme (2010) BDRip-AVC от Rulya74 торрент скачать бесплатно
  • Библиотекарь 2: Возвращение в Копи Царя Соломона / The Librarian: Return to King Solomon (2006) BDRemux 1080p от HDTracker торрент скачать бесплатно
  • Библиотекарь: В поисках копья судьбы / The Librarian: Quest for the Spear (2004) BDRemux 1080i от HDTracker торрент скачать бесплатно
  • Копы в глубоком запасе / The Other Guys (2010) HDRip от Scarabey | Театральная версия торрент скачать бесплатно
  • Копы-новобранцы / Rookie Blue (2012) WEB-DLRip | P торрент скачать бесплатно
  • Копы в юбках / The Heat (2013) TS торрент скачать бесплатно
  • Копы в юбках / The Heat (2013) HDTVRip | Звук с TS торрент скачать бесплатно


    • Комментарии (0):

      Информация

      Информация

        Посетители, находящиеся в группе Гости, не могут оставлять комментарии в данной новости.

        ↓ Меню



        ↓ Опрос

        А Вы добавили сайт в закладки?
        Да
        Не


        Top 10 за неделю (Фильмы)