.
Авторизация | Регистрация
Хочешь лучшие торренты? Добавь свой email!
Добавить
» » Лучшие дни впереди / Les beaux jours (2013) DVDRip | P торрент скачать бесплатно




    Лучшие дни впереди / Les beaux jours (2013) DVDRip | P торрент скачать бесплатно

    Опубликовал: Админ | Дата: 27-02-2015, 11:09 | Просмотров: 343



    Детально о кино
    Русское название: Лучшие дни впереди
    Русское название в мировом прокате: Les beaux jours
    Создали в: 2013
    Категория жанра: драма, комедия
    Главный режиссер: Марион Верну / Marion Vernoux
    Актеры: Фанни Ардан, Патрик Шенэ, Жан-Франсуа Стевенен, Фанни Коттансон, Катрин Лашанс, Ален Коши, Мари Ривьер, Марк Шапито

    Сюжет фильма:
    Кто сказал, что уход на пенсию — это начало конца, а не новое начало? Каролина делает совсем не то, чего от неё ждут: заводит любовника, получает новые впечатления, нарушает установленные правила и, в конечном счёте, вновь становится хозяйкой своей жизни и переживает вторую молодость.



    Снималось в: Франция
    Киностудия: Les Films du Kiosque, 27.11 Production, Direct Cin?ma
    Время просмотра: 01:29:45
    Перевод текста: Профессиональный (многоголосый закадровый)

    Файл
    Кодек для видео: XviD / AC3
    Качество фильма: DVDRip
    Информация о видео: XviD, 640x384 (1,667:1), 25,000 fps, 1726 kbps, 0.281 bit/pixel
    Информация о звуке:
    Аудио #1: 48 kHz, AC3 Dolby Digital, 2/0 (L,R) ch, 224.00 kbps (Русский)
    Аудио #2: 48 kHz, AC3 Dolby Digital, 2/0 (L,R) ch, 224.00 kbps (Французский) / Оригинал

    Семпл

    Скриншоты для ознакомления
    MediaInfo
    Общее
    Полное имя : D:Lyshie.dni.vperedi.2013.DVDRip.NNM-CLUB.avi
    Формат : AVI
    Формат/Информация : Audio Video Interleave
    Размер файла : 1,37 Гбайт
    Продолжительность : 1 ч. 29 м.
    Общий поток : 2187 Кбит/сек
    Программа кодирования : VirtualDubMod 1.5.10.2 (build 2540/release)
    Библиотека кодирования : VirtualDubMod build 2540/release

    Видео
    Идентификатор : 0
    Формат : MPEG-4 Visual
    Профиль формата : Advanced Simple@L5
    Параметр BVOP формата : 2
    Параметр QPel формата : Нет
    Параметр GMC формата : Без точки перехода
    Параметр матрицы формата : Default (H.263)
    Режим смешивания : Сжатый битовый поток
    Идентификатор кодека : XVID
    Идентификатор кодека/Подсказка : XviD
    Продолжительность : 1 ч. 29 м.
    Битрейт : 1726 Кбит/сек
    Ширина : 640 пикселей
    Высота : 384 пикселя
    Соотношение сторон : 1,667
    Частота кадров : 25,000 кадров/сек
    Цветовое пространство : YUV
    Субдискретизация насыщенности : 4:2:0
    Битовая глубина : 8 бит
    Тип развёртки : Прогрессивная
    Метод сжатия : С потерями
    Бит/(Пиксели*Кадры) : 0.281
    Размер потока : 1,08 Гбайт (79%)
    Библиотека кодирования : XviD 1.2.1 (UTC 2008-12-04)

    Аудио #1
    Идентификатор : 1
    Формат : AC-3
    Формат/Информация : Audio Coding 3
    Расширение режима : CM (complete main)
    Параметр Endianness формата : Big
    Идентификатор кодека : 2000
    Продолжительность : 1 ч. 29 м.
    Вид битрейта : Постоянный
    Битрейт : 224 Кбит/сек
    Каналы : 2 канала
    Расположение каналов : Front: L R
    Частота : 48,0 КГц
    Битовая глубина : 16 бит
    Метод сжатия : С потерями
    Размер потока : 144 Мбайт (10%)
    Выравнивание : Разделение по промежуткам
    Продолжительность промежутка : 40 мс. (1,00 видеокадр)
    Время предзагрузки промежутка : 500 мс.

    Аудио #2
    Идентификатор : 2
    Формат : AC-3
    Формат/Информация : Audio Coding 3
    Расширение режима : CM (complete main)
    Параметр Endianness формата : Big
    Идентификатор кодека : 2000
    Продолжительность : 1 ч. 29 м.
    Вид битрейта : Постоянный
    Битрейт : 224 Кбит/сек
    Каналы : 2 канала
    Расположение каналов : Front: L R
    Частота : 48,0 КГц
    Битовая глубина : 16 бит
    Метод сжатия : С потерями
    Размер потока : 144 Мбайт (10%)
    Выравнивание : Разделение по промежуткам
    Продолжительность промежутка : 40 мс. (1,00 видеокадр)
    Время предзагрузки промежутка : 500 мс.

    Размер скачиваемого торрента: 1.37 GB (1472374784 Bytes)

    Лучшие дни впереди / Les beaux jours (2013) DVDRip | P торрент скачать бесплатно
    загрузка...
    Рейтинг →
     (голосов: 1, оценка 5/5, голосовать можно 1 раз )

    Другие торренты по теме:

  • Лучшие дни впереди / Bright Days Ahead (2013) BDRip 720p от CINEMANIA | P скачать через торрент бесплатно
  • Лучшие дни впереди / Bright Days Ahead (2013) BDRip 1080p от CINEMANIA | P скачать через торрент бесплатно
  • Лучшие дни впереди / Les beaux jours (2013) BDRip-AVC | iPad | P скачать через торрент бесплатно


    • Комментарии (0):

      Информация

      Информация

        Посетители, находящиеся в группе Гости, не могут оставлять комментарии в данной новости.

        ↓ Меню



        ↓ Опрос

        А Вы добавили сайт в закладки?
        Да
        Не


        Top 10 за месяц (Фильмы)