.
Авторизация | Регистрация
» » Учитель английского / The English Teacher (2013) BDRip 720p | P | Лицензия торрент скачать бесплатно




    Учитель английского / The English Teacher (2013) BDRip 720p | P | Лицензия торрент скачать бесплатно

    Опубликовал: Админ | Дата: 27-02-2015, 11:09 | Просмотров: 303



    Детально о кино
    Русское название: Учитель английского
    Русское название в мировом прокате: The English Teacher
    Создали в: 2013
    Категория жанра: Комедия, драма
    Снималось в: США, Artina Films
    Главный режиссер: Крейг Зиск
    Актеры: Джулианна Мур, Майкл Ангарано, Грег Киннер, Лили Коллинз, Фиона Шоу, Норберт Лео Батц, Джессика Хехт, Чарли Сэкстон, Натан Лэйн, Никки Блонски, Софи Кертис

    Сюжет фильма: Линда Синклер — учительница английского языка в средней школе маленького городка Кингстон, штат Пенсильвания. Линда вкладывает душу в свой предмет и ученикам нравятся её уроки, но она одинока, жизнь её размеренна и лишена ярких событий. Когда её бывший ученик Джейсон Шервуд возвращается домой из Нью-Йорка, не добившись успеха на поприще драматурга, Линда убеждает его поставить пьесу в родной школе. Но строгий отец Джейсона, доктор Том Шервуд, настаивает, чтобы сын поступил в юридическую школу...



    Файл
    Качество фильма: BDRip (720p)
    Информация о видео: MPEG-4 AVC, 3961 Кбит/с, 1280x534
    Информация о звуке: Русский (АС3, 6 ch, 448 Кбит/с), (DTS, 6 ch, 768 Кбит/с), английский (DTS, 6 ch, 1510 Кбит/с)
    Размер скачиваемого торрента: 4.28 ГБ
    Время просмотра: 01:31:35
    Перевод текста: Профессиональный многоголосый лицензия

    MediaInfo
    Общее
    Уникальный идентификатор : 228065397208236179058502206067298930971 (0xAB93CC3B0F7A5ED09FB9F06CA7EE111B)
    Полное имя : D:Uchitel.anglijskogo.2012.P.BDRip.720p.mkv
    Формат : Matroska
    Версия формата : Version 2
    Размер файла : 4,28 Гбайт
    Продолжительность : 1 ч. 31 м.
    Общий поток : 6672 Кбит/сек
    Название фильма : The.English.Teacher.2013.BluRay.720p.DTS.x264-CHD
    Дата кодирования : UTC 2013-10-24 10:51:33
    Программа кодирования : mkvmerge v6.3.0 (;You can;t stop me!;) built on Jun 28 2013 20:09:41
    Библиотека кодирования : libebml v1.3.0 libmatroska v1.4.0

    Видео
    Идентификатор : 1
    Формат : AVC
    Формат/Информация : Advanced Video Codec
    Профиль формата : High@L4.1
    Параметр CABAC формата : Да
    Параметр ReFrames формата : 10 кадров
    Идентификатор кодека : V_MPEG4/ISO/AVC
    Продолжительность : 1 ч. 31 м.
    Битрейт : 3961 Кбит/сек
    Ширина : 1280 пикселей
    Высота : 534 пикселя
    Соотношение сторон : 2,40:1
    Режим частоты кадров : Постоянный
    Частота кадров : 23,976 кадра/сек
    Цветовое пространство : YUV
    Субдискретизация насыщенности : 4:2:0
    Битовая глубина : 8 бит
    Тип развёртки : Прогрессивная
    Бит/(Пиксели*Кадры) : 0.242
    Размер потока : 2,45 Гбайт (57%)
    Заголовок : hahay0yo@CHD
    Библиотека кодирования : x264 core 132 r2310 76a5c3a
    Настройки программы : cabac=1 / ref=10 / deblock=1:-3:-3 / analyse=0x3:0x113 / me=umh / subme=10 / psy=1 / psy_rd=1.00:0.05 / mixed_ref=1 / me_range=32 / chroma_me=1 / trellis=2 / 8x8dct=1 / cqm=0 / deadzone=21,11 / fast_pskip=0 / chroma_qp_offset=-2 / threads=18 / lookahead_threads=1 / sliced_threads=0 / nr=0 / decimate=1 / interlaced=0 / bluray_compat=0 / constrained_intra=0 / bframes=5 / b_pyramid=2 / b_adapt=2 / b_bias=0 / direct=3 / weightb=1 / open_gop=0 / weightp=2 / keyint=250 / keyint_min=23 / scenecut=40 / intra_refresh=0 / rc=2pass / mbtree=0 / bitrate=3961 / ratetol=1.0 / qcomp=0.70 / qpmin=0 / qpmax=69 / qpstep=4 / cplxblur=20.0 / qblur=0.5 / ip_ratio=1.40 / pb_ratio=1.30 / aq=2:0.90
    Язык : English
    Default : Да
    Forced : Нет

    Аудио #1
    Идентификатор : 2
    Формат : AC-3
    Формат/Информация : Audio Coding 3
    Расширение режима : CM (complete main)
    Параметр Endianness формата : Big
    Идентификатор кодека : A_AC3
    Продолжительность : 1 ч. 31 м.
    Вид битрейта : Постоянный
    Битрейт : 448 Кбит/сек
    Каналы : 6 каналов
    Расположение каналов : Front: L C R, Side: L R, LFE
    Частота : 48,0 КГц
    Битовая глубина : 16 бит
    Метод сжатия : С потерями
    Размер потока : 294 Мбайт (7%)
    Язык : Russian
    Default : Да
    Forced : Нет

    Аудио #2
    Идентификатор : 3
    Формат : DTS
    Формат/Информация : Digital Theater Systems
    Режим : 16
    Параметр Endianness формата : Big
    Идентификатор кодека : A_DTS
    Продолжительность : 1 ч. 31 м.
    Вид битрейта : Постоянный
    Битрейт : 755 Кбит/сек
    Каналы : 6 каналов
    Расположение каналов : Front: L C R, Side: L R, LFE
    Частота : 48,0 КГц
    Битовая глубина : 24 бит
    Метод сжатия : С потерями
    Размер потока : 495 Мбайт (11%)
    Язык : Russian
    Default : Нет
    Forced : Нет

    Аудио #3
    Идентификатор : 4
    Формат : DTS
    Формат/Информация : Digital Theater Systems
    Режим : 16
    Параметр Endianness формата : Big
    Идентификатор кодека : A_DTS
    Продолжительность : 1 ч. 31 м.
    Вид битрейта : Постоянный
    Битрейт : 1509 Кбит/сек
    Каналы : 2 канала
    Расположение каналов : Front: L R
    Частота : 48,0 КГц
    Битовая глубина : 24 бит
    Метод сжатия : С потерями
    Размер потока : 991 Мбайт (23%)
    Заголовок : English DTS 5.1 1509Kbps
    Язык : English
    Default : Нет
    Forced : Нет

    Скриншоты для ознакомления


    Размер скачиваемого торрента: 4.28 GB (4592498359 Bytes)

    Учитель английского / The English Teacher (2013) BDRip 720p | P | Лицензия торрент скачать бесплатно
    загрузка...
    Рейтинг →
     (голосов: 1, оценка 3/5, голосовать можно 1 раз )

    Другие торренты по теме:



      Комментарии (0):

      Информация

      Информация

        Посетители, находящиеся в группе Гости, не могут оставлять комментарии в данной новости.

        ↓ Меню



        ↓ Опрос

        А Вы добавили сайт в закладки?
        Да
        Не


        Top 10 за неделю (Фильмы)