.
Авторизация | Регистрация
» » Экспресс миллионеров / Foo gwai lit che (Millionaires Express) (1986) BDRip by msltel | A скачать через торрент бесплатно




    Экспресс миллионеров / Foo gwai lit che (Millionaires Express) (1986) BDRip by msltel | A скачать через торрент бесплатно

    Опубликовал: Админ | Дата: 27-02-2015, 11:09 | Просмотров: 369



    Русское название: Экспресс миллионеров
    Русское название в мировом прокате: Foo gwai lit che (Millionaires Express)
    Создали в: 1986
    Категория жанра: Боевик, комедия, вестерн
    Снималось в: Гонконг, Bo Ho Film Company Ltd.
    Главный режиссер: Саммо Хунг
    Актеры: Саммо Хунг, Юэнь Бяо, Синтия Ротрок, Ричард Нортон, Ясуаки Курата, Розамунд Кван, Кенни Би, Ланг Чан, Оливия Чэнheng, Кар Лок Чин, Эмили Чу, Фэт Чунг

    Сюжет фильма: Конец 30-х годов. Обаятельный авантюрист Чин после увлекательных приключений в России возвращается в родную деревню на китайской границе. За время его отсутствия дома многое изменилось. Местный начальник полиции со своими подчинёнными ограбили банк и сбежали. Его место занял бывший начальник пожарной охраны Тсао. В окрестностях городка появляется конная банда, в рядах которой два американских ковбоя, собирающиеся напасть на экспресс из Шанхая с целью завладеть некой картой древних сокровищ. Кстати, Чин возвращается домой не один, а с толпой молодых и симпатичных девушек. Он открывает в деревне что-то вроде светского салона. Чтобы увеличить приток посетителей и позволить деревне разбогатеть, он взрывает рельсы прямо перед тем самым экспрессом, набитым миллионерами из Шанхая. На этот же поезд пытались залезть и беглый начальник полиции с подчинёнными. В результате они попадают прямо в деревенскую тюрьму, а пассажиры экспресса - в салон Чина… Великолепны зрелищные боевые сцены, которые сегодня стали бесспорным образцом гонконгской кинопродукции середины 80-х гг.

    Качество фильма: BDRip
    Информация о видео: XviD, 1573 Kбит/c, 720x304
    Информация о звуке: Русский, китайский (AC3, 6 ch, 448 Кбит/с)
    Размер скачиваемого торрента: 1.56 ГБ
    Время просмотра: 01:29:58
    Перевод текста: Авторский
    Субтитры: Английские

    Исходник: delo2006 (HDTracker)

    Сравнение с исходником



    Из отзывов...
    kapitalist

    Весело и просто

    Типичный продукт студии Golden Harvest 80-х годов. В кадре все знакомые лица, известные по фильмам Джеки Чана. Сам Джеки, правда, здесь не снимался, а потому фильм остался практически не известным в период расцвета видеосалонов, и мало кто, кроме поклонников кинематографа Гонконга, знает его сейчас. Тем не менее, посмотреть его стоит и не только любителям жанра...
    В целом, очень неплохой комедийный боевик, который придётся по вкусу любому зрителю.

    7 из 10

    Кинопоиск
    MediaInfo
    Общее
    Полное имя : E:VideoEkspress.millionerov.1986.XviD.BDRipEkspress.millionerov.1986.eng.srt
    Размер файла : 131 Кбайт

    Общее
    Полное имя : E:VideoEkspress.millionerov.1986.XviD.BDRipEkspress.millionerov.1986.Original.chi.ac3
    Формат : AC-3
    Формат/Информация : Audio Coding 3
    Размер файла : 288 Мбайт
    Продолжительность : 1 ч. 29 м.
    Режим общего битрейта : Постоянный
    Общий поток : 448 Кбит/сек

    Аудио
    Формат : AC-3
    Формат/Информация : Audio Coding 3
    Расширение режима : CM (complete main)
    Параметр Endianness формата : Big
    Продолжительность : 1 ч. 29 м.
    Вид битрейта : Постоянный
    Битрейт : 448 Кбит/сек
    Каналы : 6 каналов
    Расположение каналов : Front: L C R, Side: L R, LFE
    Частота : 48,0 КГц
    Битовая глубина : 16 бит
    Метод сжатия : С потерями
    Размер потока : 288 Мбайт (100%)

    Общее
    Полное имя : E:VideoEkspress.millionerov.1986.XviD.BDRipEkspress.millionerov.1986.XviD.BDRip.avi
    Формат : AVI
    Формат/Информация : Audio Video Interleave
    Размер файла : 1,28 Гбайт
    Продолжительность : 1 ч. 29 м.
    Общий поток : 2030 Кбит/сек
    Программа кодирования : VirtualDubMod 1.5.10.2 (build 2540/release)
    Библиотека кодирования : VirtualDubMod build 2540/release

    Видео
    Идентификатор : 0
    Формат : MPEG-4 Visual
    Профиль формата : Advanced Simple@L5
    Параметр BVOP формата : 1
    Параметр QPel формата : Нет
    Параметр GMC формата : Без точки перехода
    Параметр матрицы формата : Default (H.263)
    Режим смешивания : Сжатый битовый поток
    Идентификатор кодека : XVID
    Идентификатор кодека/Подсказка : XviD
    Продолжительность : 1 ч. 29 м.
    Битрейт : 1573 Кбит/сек
    Ширина : 720 пикселей
    Высота : 304 пикселя
    Соотношение сторон : 2,35:1
    Частота кадров : 23,976 кадра/сек
    Цветовое пространство : YUV
    Субдискретизация насыщенности : 4:2:0
    Битовая глубина : 8 бит
    Тип развёртки : Прогрессивная
    Метод сжатия : С потерями
    Бит/(Пиксели*Кадры) : 0.300
    Размер потока : 1012 Мбайт (78%)
    Библиотека кодирования : XviD 1.2.1 (UTC 2008-12-04)

    Аудио
    Идентификатор : 1
    Формат : AC-3
    Формат/Информация : Audio Coding 3
    Расширение режима : CM (complete main)
    Параметр Endianness формата : Big
    Идентификатор кодека : 2000
    Продолжительность : 1 ч. 29 м.
    Вид битрейта : Постоянный
    Битрейт : 448 Кбит/сек
    Каналы : 6 каналов
    Расположение каналов : Front: L C R, Side: L R, LFE
    Частота : 48,0 КГц
    Битовая глубина : 16 бит
    Метод сжатия : С потерями
    Размер потока : 288 Мбайт (22%)
    Выравнивание : Разделение по промежуткам
    Продолжительность промежутка : 42 мс. (1,00 видеокадр)
    Время предзагрузки промежутка : 500 мс.
    Скриншоты для ознакомления




    Залил: msltel
    Размер скачиваемого торрента: 1.56 GB (1671698130 Bytes)

    Экспресс миллионеров / Foo gwai lit che (Millionaires Express) (1986) BDRip by msltel | A скачать через торрент бесплатно
    загрузка...
    Рейтинг →
     (голосов: 1, оценка 5/5, голосовать можно 1 раз )

    Другие торренты по теме:

  • Экспресс миллионеров / Millionaires Express (1986) BDRip 1080p от BrTorrent скачать через торрент бесплатно
  • Экспресс миллионеров / Millionaires Express / Foo gwai lit che (1986) BDRip-AVC от MediaClub торрент скачать бесплатно
  • Шанхайский экспресс / Экспресс миллионеров / Foo gwai lit che / Shanghai Express / Millionaires Express (1986) DVD5 | A | P скачать торрент бесплатно


    • Комментарии (0):

      Информация

      Информация

        Посетители, находящиеся в группе Гости, не могут оставлять комментарии в данной новости.

        ↓ Меню



        ↓ Опрос

        А Вы добавили сайт в закладки?
        Да
        Не


        Top 10 за неделю (Фильмы)