.
Авторизация | Регистрация
» » Семейка Аддамс / The Addams Family (1991) BDRemux 1080p скачать через торрент бесплатно




    Семейка Аддамс / The Addams Family (1991) BDRemux 1080p скачать через торрент бесплатно

    Опубликовал: Админ | Дата: 27-02-2015, 11:09 | Просмотров: 344



    Детально о кино

    Русское название: Семейка Аддамс
    Русское название в мировом прокате: The Addams Family
    Создали в: 1991
    Категория жанра: фэнтези, комедия
    Главный режиссер: Барри Зонненфельд / Barry Sonnenfeld
    Сценарий: Кэролин Томпсон, Ларри Уилсон, Чарльз Аддамс
    Продюсер: Скотт Рудин, Бонни Арнольд, Джек Камминс
    Оператор: Оуэн Ройзман



    Актеры: Анжелика Хьюстон, Рауль Хулиа, Кристофер Ллойд, Элизабет Уилсон, Кристина Риччи, Джудит Мэлина, Дэн Хедайя, Карел Стрёйкен, Пол Бенедикт, Кристофер Харт, Дэна Айви, Джон Фрэнклин, Кейт Макгрегор-Стюарт, Уайтби Хертфорд, Мерседес МакНаб, Ричард Тэннер, Валерий Уолкер

    Сюжет фильма:

    Черная комедия о колоритной семейке, обитающей в не менее колоритном доме. Глава семьи, Гомес Аддамс — очень самоуверенный и довольно импульсивный тип, который четверть века тому назад страшно поругался со своим старшим братом Фестером, после чего тот пропал без вести. Все попытки отыскать его были безуспешными. Но вот, однажды на пороге фамильного особняка появляется некто, очень похожий на Фестера. Но состоится ли триумфальное возвращение в семью блудного брата?




    Снималось в: США
    Киностудия: Orion Pictures Corporation, Paramount Pictures
    Время просмотра: 01:39:37
    Перевод текста: Профессиональный (многоголосый закадровый)
    Перевод текста 2: Профессиональный (многоголосый закадровый) (СТС)
    Перевод текста 3: Авторский (одноголосый закадровый) (А. Михалев)
    Перевод текста 4: Авторский (одноголосый закадровый) (Ю. Сербин)
    Перевод текста 5: Авторский (одноголосый закадровый) (В. Сонькин)
    Перевод текста 6: Авторский (одноголосый закадровый) (С. Визгунов)
    Оригинальная аудиодорожка: английский



    Файл

    Кодек для видео: MKV
    Качество фильма: BDRemux 1080p
    Информация о видео: MPEG-4 AVC, 18.9 Мбит/с, 1920x1080, 23.976 кадр/с

    Информация о звуке:

    Информация о звуке: Russian, DTS, 6 ch, 768 Кбит/с (Профессиональный многоголосый)
    Информация о звуке 2: Russian, AC3, 2 ch, 192 Кбит/с (Профессиональный многоголосый, СТС)
    Информация о звуке 3: Russian, AC3, 6 ch, 448 Кбит/с (Авторский одноголосый, А. Михалев)
    Информация о звуке 4: Russian, AC3, 6 ch, 448 Кбит/с (Авторский одноголосый, Ю. Сербин)
    Информация о звуке 5: Russian, AC3, 2 ch, 192 Кбит/с (Авторский одноголосый, В. Сонькин)
    Информация о звуке 6: Russian, AC3, 2 ch, 192 Кбит/с (Авторский одноголосый, С. Визгунов)
    Информация о звуке 7: English, DTS-HD MA, 6 ch, 4209 Кбит/с
    Субтитры: русские, английские

    Семпл

    Скриншоты для ознакомления


    MediaInfo


    Общее
    Уникальный идентификатор : 252548850898961880604108564415905594881 (0xBDFF23B21F768AD88E3CA16EBC3CFE01)
    Полное имя : E:Художественные ФильмыСемейка АддамсThe.Addams.Family.1991.BD-remux.mkv
    Формат : Matroska
    Версия формата : Version 2
    Размер файла : 19,6 Гбайт
    Продолжительность : 1 ч. 39 м.
    Режим общего битрейта : Переменный
    Общий поток : 28,2 Мбит/сек
    Название фильма : Respector
    Дата кодирования : UTC 2013-10-01 11:09:13
    Программа кодирования : mkvmerge v5.5.0 (;Healer;) built on Apr 24 2012 23:47:03
    Библиотека кодирования : libebml v1.2.3 libmatroska v1.3.0

    Видео
    Идентификатор : 1
    Формат : AVC
    Формат/Информация : Advanced Video Codec
    Профиль формата : High@L4.1
    Параметр CABAC формата : Да
    Параметр ReFrames формата : 2 кадра
    Идентификатор кодека : V_MPEG4/ISO/AVC
    Продолжительность : 1 ч. 39 м.
    Вид битрейта : Переменный
    Ширина : 1920 пикселей
    Высота : 1080 пикселей
    Соотношение сторон : 16:9
    Режим частоты кадров : Постоянный
    Частота кадров : 23,976 кадра/сек
    Цветовое пространство : YUV
    Субдискретизация насыщенности : 4:2:0
    Битовая глубина : 8 бит
    Тип развёртки : Прогрессивная
    Язык : English
    Default : Да
    Forced : Нет

    Аудио #1
    Идентификатор : 2
    Формат : DTS
    Формат/Информация : Digital Theater Systems
    Профиль формата : MA / Core
    Режим : 16
    Параметр Endianness формата : Big
    Идентификатор кодека : A_DTS
    Продолжительность : 1 ч. 39 м.
    Вид битрейта : Переменный
    Битрейт : Неизвестно / 768 Кбит/сек
    Каналы : 6 каналов
    Расположение каналов : Front: L C R, Side: L R, LFE
    Частота : 48,0 КГц
    Битовая глубина : 24 бит
    Метод сжатия : Без потерь / Lossy
    Заголовок : MVO
    Язык : Russian
    Default : Да
    Forced : Да

    Аудио #2
    Идентификатор : 3
    Формат : AC-3
    Формат/Информация : Audio Coding 3
    Расширение режима : CM (complete main)
    Параметр Endianness формата : Big
    Идентификатор кодека : A_AC3
    Продолжительность : 1 ч. 39 м.
    Вид битрейта : Постоянный
    Битрейт : 192 Кбит/сек
    Каналы : 2 канала
    Расположение каналов : Front: L R
    Частота : 48,0 КГц
    Битовая глубина : 16 бит
    Метод сжатия : С потерями
    Размер потока : 137 Мбайт (1%)
    Заголовок : MVO-CTC
    Язык : Russian
    Default : Нет
    Forced : Нет

    Аудио #3
    Идентификатор : 4
    Формат : AC-3
    Формат/Информация : Audio Coding 3
    Расширение режима : CM (complete main)
    Параметр Endianness формата : Big
    Идентификатор кодека : A_AC3
    Продолжительность : 1 ч. 39 м.
    Вид битрейта : Постоянный
    Битрейт : 448 Кбит/сек
    Каналы : 6 каналов
    Расположение каналов : Front: L C R, Side: L R, LFE
    Частота : 48,0 КГц
    Битовая глубина : 16 бит
    Метод сжатия : С потерями
    Размер потока : 319 Мбайт (2%)
    Заголовок : Mihalev
    Язык : Russian
    Default : Нет
    Forced : Нет

    Аудио #4
    Идентификатор : 5
    Формат : AC-3
    Формат/Информация : Audio Coding 3
    Расширение режима : CM (complete main)
    Параметр Endianness формата : Big
    Идентификатор кодека : A_AC3
    Продолжительность : 1 ч. 39 м.
    Вид битрейта : Постоянный
    Битрейт : 448 Кбит/сек
    Каналы : 6 каналов
    Расположение каналов : Front: L C R, Side: L R, LFE
    Частота : 48,0 КГц
    Битовая глубина : 16 бит
    Метод сжатия : С потерями
    Размер потока : 319 Мбайт (2%)
    Заголовок : Serbin
    Язык : Russian
    Default : Нет
    Forced : Нет

    Аудио #5
    Идентификатор : 6
    Формат : AC-3
    Формат/Информация : Audio Coding 3
    Расширение режима : CM (complete main)
    Параметр Endianness формата : Big
    Идентификатор кодека : A_AC3
    Продолжительность : 1 ч. 39 м.
    Вид битрейта : Постоянный
    Битрейт : 192 Кбит/сек
    Каналы : 2 канала
    Расположение каналов : Front: L R
    Частота : 48,0 КГц
    Битовая глубина : 16 бит
    Метод сжатия : С потерями
    Размер потока : 137 Мбайт (1%)
    Заголовок : Sonkin
    Язык : Russian
    Default : Нет
    Forced : Нет

    Аудио #6
    Идентификатор : 7
    Формат : AC-3
    Формат/Информация : Audio Coding 3
    Расширение режима : CM (complete main)
    Параметр Endianness формата : Big
    Идентификатор кодека : A_AC3
    Продолжительность : 1 ч. 39 м.
    Вид битрейта : Постоянный
    Битрейт : 192 Кбит/сек
    Каналы : 2 канала
    Расположение каналов : Front: L R
    Частота : 48,0 КГц
    Битовая глубина : 16 бит
    Метод сжатия : С потерями
    Размер потока : 137 Мбайт (1%)
    Заголовок : Vizgunov
    Язык : Russian
    Default : Нет
    Forced : Нет

    Аудио #7
    Идентификатор : 8
    Формат : DTS
    Формат/Информация : Digital Theater Systems
    Профиль формата : MA / Core
    Режим : 16
    Параметр Endianness формата : Big
    Идентификатор кодека : A_DTS
    Продолжительность : 1 ч. 39 м.
    Вид битрейта : Переменный
    Битрейт : Неизвестно / 1509 Кбит/сек
    Каналы : 6 каналов
    Расположение каналов : Front: L C R, Side: L R, LFE
    Частота : 48,0 КГц
    Битовая глубина : 24 бит
    Метод сжатия : Без потерь / Lossy
    Язык : English
    Default : Нет
    Forced : Нет

    Текст #1
    Идентификатор : 9
    Формат : UTF-8
    Идентификатор кодека : S_TEXT/UTF8
    Идентификатор кодека/Информация : UTF-8 Plain Text
    Язык : Russian
    Default : Нет
    Forced : Нет

    Текст #2
    Идентификатор : 10
    Формат : UTF-8
    Идентификатор кодека : S_TEXT/UTF8
    Идентификатор кодека/Информация : UTF-8 Plain Text
    Язык : English
    Default : Нет
    Forced : Нет

    Меню
    00:00:00.000 : :Chapter 01
    00:04:56.713 : :Chapter 02
    00:09:01.624 : :Chapter 03
    00:14:23.779 : :Chapter 04
    00:21:07.516 : :Chapter 05
    00:23:39.584 : :Chapter 06
    00:29:35.482 : :Chapter 07
    00:37:41.384 : :Chapter 08
    00:46:16.899 : :Chapter 09
    00:53:51.311 : :Chapter 10
    01:00:33.421 : :Chapter 11
    01:06:57.805 : :Chapter 12
    01:17:07.956 : :Chapter 13
    01:17:57.339 : :Chapter 14
    01:23:38.680 : :Chapter 15
    01:26:26.222 : :Chapter 16
    01:31:21.559 : :Chapter 17
    01:35:17.920 : :Chapter 18
    01:39:55.656 : :Chapter 19

    Залил: GENR12
    Размер скачиваемого торрента: 19.65 GB (21098373927 Bytes)

    Семейка Аддамс / The Addams Family (1991) BDRemux 1080p скачать через торрент бесплатно
    загрузка...
    Рейтинг →
     (голосов: 1, оценка 5/5, голосовать можно 1 раз )

    Другие торренты по теме:

  • Ценности семейки Аддамс / Addams Family Values (1993) HDTVRip | P, A торрент скачать бесплатно
  • Ценности семейки Аддамс / Addams Family Values (1993) HDTVRip 720p от MediaClub торрент скачать бесплатно
  • Семейка Аддамс / The Addams Family (1991) HDTVRip 720p от MediaClub торрент скачать бесплатно
  • Ценности семейки Аддамсов / Addams Family Values (1993) HDTVRip от Youtracker торрент скачать бесплатно
  • Семейка Аддамс / The Addams Family (1991) HDTVRip от Youtracker торрент скачать бесплатно
  • Семейка Аддамс / The Addams Family (1991) BDRip от MediaClub | P торрент скачать бесплатно
  • Семейка Аддамс / The Addams Family (1991) BDRip 720р от MediaClub | P, A торрент скачать бесплатно
  • Семейка Аддамс / The Addams Family (1991) BDRip 720p от leonardo 59 Scarabey скачать через торрент бесплатно


    • Комментарии (0):

      Информация

      Информация

        Посетители, находящиеся в группе Гости, не могут оставлять комментарии в данной новости.

        ↓ Меню



        ↓ Опрос

        А Вы добавили сайт в закладки?
        Да
        Не


        Top 10 за неделю (Фильмы)