.
Авторизация | Регистрация
» » Обман / The Lookout (2007) HDRip | P скачать через торрент бесплатно




    Обман / The Lookout (2007) HDRip | P скачать через торрент бесплатно

    Опубликовал: Админ | Дата: 27-02-2015, 11:09 | Просмотров: 330



    Детально о кино
    Русское название: Обман
    Русское название в мировом прокате: The Lookout
    Создали в: 2007
    Категория жанра: триллер, драма, криминал
    Главный режиссер: Скотт Фрэнк / Scott Frank
    Актеры: Джозеф Гордон-Левитт, Джефф Дэниелс, Мэттью Гуд, Айла Фишер, Карла Гуджино, Брюс МакГилл, Альберта Уотсон, Алекс Борштейн, Серджо Ди Зио, Дэвид Хубанд

    Сюжет фильма:
    Талантливый хоккеист Крис Пратт, подававший большие надежды, попадает в автомобильную катастрофу и теряет память. Став инвалидом, он зарабатывает на жизнь ночным уборщиком в банке. А в это время лидер преступной группировки Гарри Спарго планирует ограбление этого самого банка и вербует слабоумного уборщика себе в помощники…


    Официальный сайт

    Снималось в: США
    Киностудия: Spyglass Entertainment, Miramax Films
    Время просмотра: 01:38:39
    Перевод текста: Профессиональный (многоголосый, закадровый) лицензия

    Файл
    Кодек для видео: XviD / MP3
    Качество фильма: HDRip
    Информация о видео: 688x288 (2.39:1), 23.976 fps, XviD build 50 ~916 kbps avg, 0.19 bit/pixel
    Информация о звуке: 48 kHz, MPEG Layer 3, 2 ch, ~128.00 kbps avg

    Скриншоты для ознакомления
    MediaInfo
    General
    Complete name : /media/store/Obman.2007.HDRip.avi
    Format : AVI
    Format/Info : Audio Video Interleave
    File size : 744 MiB
    Duration : 1h 38mn
    Overall bit rate : 1 054 Kbps
    Writing application : VirtualDubMod 1.5.10.2 (build 2540/release)
    Writing library : VirtualDubMod build 2540/release

    Video
    ID : 0
    Format : MPEG-4 Visual
    Format profile : Advanced Simple@L5
    Format settings, BVOP : 1
    Format settings, QPel : No
    Format settings, GMC : No warppoints
    Format settings, Matrix : Default (MPEG)
    Codec ID : XVID
    Codec ID/Hint : XviD
    Duration : 1h 38mn
    Bit rate : 917 Kbps
    Width : 688 pixels
    Height : 288 pixels
    Display aspect ratio : 2.40:1
    Frame rate : 23.976 fps
    Color space : YUV
    Chroma subsampling : 4:2:0
    Bit depth : 8 bits
    Scan type : Progressive
    Compression mode : Lossy
    Bits/(Pixel*Frame) : 0.193
    Stream size : 647 MiB (87%)
    Writing library : XviD 1.2.1 (UTC 2008-12-04)

    Audio
    ID : 1
    Format : MPEG Audio
    Format version : Version 1
    Format profile : Layer 3
    Codec ID : 55
    Codec ID/Hint : MP3
    Duration : 1h 38mn
    Bit rate mode : Constant
    Bit rate : 128 Kbps
    Channel(s) : 2 channels
    Sampling rate : 48.0 KHz
    Compression mode : Lossy
    Stream size : 90.3 MiB (12%)
    Alignment : Aligned on interleaves
    Interleave, duration : 42 ms (1.00 video frame)
    Interleave, preload duration : 504 ms
    Writing library : LAME3.98r
    Encoding settings : -m s -V 4 -q 2 -lowpass 17 -b 128

    Размер скачиваемого торрента: 743.83 MB (779958272 Bytes)

    Обман / The Lookout (2007) HDRip | P скачать через торрент бесплатно
    загрузка...
    Рейтинг →
     (голосов: 1, оценка 4/5, голосовать можно 1 раз )

    Другие торренты по теме:

  • Обман / Deception (2012) WEB-DL 720p | L2 торрент скачать бесплатно
  • Обмани меня / Теория лжи / Lie To Me (2009) BDRip 720p | D, P торрент скачать бесплатно
  • Обмануть всех / I Spy (2002) WEB-DL 720p от HDClub торрент скачать бесплатно
  • Большой белый обман / The Great White Hype (1996) DVDRip | P торрент скачать бесплатно
  • Розовая пора моей школьной жизни сплошной обман / Yahari Ore no Seishun Love Come wa Machigatteiru (2013) HDTV 720p | L2 торрент скачать бесплатно
  • Красный обман (2011) DVD5 торрент скачать бесплатно
  • Обман Обамы / Obama Deception (2009) DVDRip-AVC от Torrent-Xzona торрент скачать бесплатно
  • Ошкадеров Олег - Как не дать себя обмануть. Книга 1 (2012) MP3 торрент скачать бесплатно


    • Комментарии (0):

      Информация

      Информация

        Посетители, находящиеся в группе Гости, не могут оставлять комментарии в данной новости.

        ↓ Меню



        ↓ Опрос

        А Вы добавили сайт в закладки?
        Да
        Не


        Top 10 за неделю (Фильмы)