.
Авторизация | Регистрация
» » Аэроплан 2: Продолжение / Airplane II: The Sequel (1982) BDRip (AVC) от MediaClub | P, A торрент скачать бесплатно




    Аэроплан 2: Продолжение / Airplane II: The Sequel (1982) BDRip (AVC) от MediaClub | P, A торрент скачать бесплатно

    Опубликовал: Админ | Дата: 27-02-2015, 11:09 | Просмотров: 371



    Детально о кино
    Русское название: Аэроплан 2: Продолжение
    Русское название в мировом прокате: Airplane II: The Sequel
    Создали в: 1982
    Категория жанра: Фантастика, мелодрама, комедия
    Главный режиссер: Кен Финклмен
    Актеры: Роберт Хэйс, Джули Хэгерти, Ллойд Бриджес, Чад Эверетт, Питер Грейвз, Чак Коннорс, Уильям Шетнер, Рэймонд Барр, Джон Вернон

    Сюжет фильма:
    Полет шаттла, совершающего первый регулярный рейс на Луну, проходит нормально, если не считать того, что все системы корабля отказали, на борту находится безумный террорист, угрожающий взорвать звездолет, и, что самое страшное, у экипажа… абсолютно кончился кофе.



    Снималось в: США, Paramount Pictures
    Время просмотра: 01:24:16
    Перевод текста: Профессиональный многоголосый, авторский

    Файл
    Кодек для видео: x264
    Качество фильма: BDRip (AVC)
    Информация о видео: MPEG-4 AVC, 3500 Кбит/с, 1024x576, 23.976 кадр/с
    Информация о звуке #1: Русский (AC3, 2 ch, 192 Кбит/с) / Профессиональный многоголосый (лицензия)
    Информация о звуке #2: Русский (AC3, 6 ch, 384 Кбит/с) / Профессиональный многоголосый
    Информация о звуке #3: Русский (AC3, 2 ch, 192 Кбит/с) / Авторский одноголосый (А. Михалёв)
    Информация о звуке #4: Русский (AC3, 2 ch, 192 Кбит/с) / Авторский одноголосый (В. Горчаков)
    Информация о звуке #5: Английский (AC3, 2 ch, 192 Кбит/с)
    Субтитры: Английские

    Семпл

    MI
    Format : Matroska
    Format version : Version 4 / Version 2
    File size : 2.74 GiB
    Duration : 1h 24mn
    Overall bit rate : 4 653 Kbps
    Movie name : -=MediaClub-Odessit=-
    Encoded date : UTC 2013-10-29 06:50:09
    Writing application : mkvmerge v6.2.0 (;Promised Land;) built on Apr 28 2013 12:22:01
    Writing library : libebml v1.3.0 libmatroska v1.4.0

    Video
    ID : 1
    Format : AVC
    Format/Info : Advanced Video Codec
    Format profile : High@L4.1
    Format settings, CABAC : Yes
    Format settings, ReFrames : 9 frames
    Codec ID : V_MPEG4/ISO/AVC
    Duration : 1h 24mn
    Bit rate : 3 500 Kbps
    Width : 1 024 pixels
    Height : 576 pixels
    Display aspect ratio : 16:9
    Frame rate : 23.976 fps
    Color space : YUV
    Chroma subsampling : 4:2:0
    Bit depth : 8 bits
    Scan type : Progressive
    Bits/(Pixel*Frame) : 0.247
    Stream size : 2.01 GiB (73%)
    Writing library : x264 core 133 r2334 a3ac64b
    Encoding settings : cabac=1 / ref=9 / deblock=1:-3:-3 / analyse=0x3:0x133 / me=umh / subme=11 / psy=1 / psy_rd=1.00:0.20 / mixed_ref=1 / me_range=48 / chroma_me=1 / trellis=2 / 8x8dct=1 / cqm=0 / deadzone=21,11 / fast_pskip=0 / chroma_qp_offset=-3 / threads=6 / lookahead_threads=1 / sliced_threads=0 / nr=0 / decimate=0 / interlaced=0 / bluray_compat=0 / constrained_intra=0 / bframes=9 / b_pyramid=2 / b_adapt=2 / b_bias=0 / direct=3 / weightb=1 / open_gop=0 / weightp=2 / keyint=240 / keyint_min=23 / scenecut=40 / intra_refresh=0 / rc=2pass / mbtree=0 / bitrate=3500 / ratetol=1.0 / qcomp=0.60 / qpmin=0 / qpmax=69 / qpstep=4 / cplxblur=20.0 / qblur=0.5 / ip_ratio=1.40 / pb_ratio=1.30 / aq=1:1.00
    Language : English

    Audio #1
    ID : 2
    Format : AC-3
    Format/Info : Audio Coding 3
    Mode extension : CM (complete main)
    Codec ID : A_AC3
    Duration : 1h 24mn
    Bit rate mode : Constant
    Bit rate : 192 Kbps
    Channel(s) : 2 channels
    Channel positions : Front: L R
    Sampling rate : 48.0 KHz
    Bit depth : 16 bits
    Compression mode : Lossy
    Stream size : 116 MiB (4%)
    Title : Профессиональный многоголосый (лицензия)
    Language : Russian

    Audio #2
    ID : 3
    Format : AC-3
    Format/Info : Audio Coding 3
    Mode extension : CM (complete main)
    Codec ID : A_AC3
    Duration : 1h 24mn
    Bit rate mode : Constant
    Bit rate : 384 Kbps
    Channel(s) : 6 channels
    Channel positions : Front: L C R, Side: L R, LFE
    Sampling rate : 48.0 KHz
    Bit depth : 16 bits
    Compression mode : Lossy
    Stream size : 231 MiB (8%)
    Title : Профессиональный многоголосый
    Language : Russian

    Audio #3
    ID : 4
    Format : AC-3
    Format/Info : Audio Coding 3
    Mode extension : CM (complete main)
    Codec ID : A_AC3
    Duration : 1h 24mn
    Bit rate mode : Constant
    Bit rate : 192 Kbps
    Channel(s) : 2 channels
    Channel positions : Front: L R
    Sampling rate : 48.0 KHz
    Bit depth : 16 bits
    Compression mode : Lossy
    Stream size : 116 MiB (4%)
    Title : Авторский одноголосый (А. Михалёв)
    Language : Russian

    Audio #4
    ID : 5
    Format : AC-3
    Format/Info : Audio Coding 3
    Mode extension : CM (complete main)
    Codec ID : A_AC3
    Duration : 1h 24mn
    Bit rate mode : Constant
    Bit rate : 192 Kbps
    Channel(s) : 2 channels
    Channel positions : Front: L R
    Sampling rate : 48.0 KHz
    Bit depth : 16 bits
    Compression mode : Lossy
    Stream size : 116 MiB (4%)
    Title : Авторский одноголосый (В. Горчаков)
    Language : Russian

    Audio #5
    ID : 6
    Format : AC-3
    Format/Info : Audio Coding 3
    Mode extension : CM (complete main)
    Codec ID : A_AC3
    Duration : 1h 24mn
    Bit rate mode : Constant
    Bit rate : 192 Kbps
    Channel(s) : 2 channels
    Channel positions : Front: L R
    Sampling rate : 48.0 KHz
    Bit depth : 16 bits
    Compression mode : Lossy
    Stream size : 116 MiB (4%)
    Language : English

    Text
    ID : 7
    Format : UTF-8
    Codec ID : S_TEXT/UTF8
    Codec ID/Info : UTF-8 Plain Text
    Language : English

    Menu
    00:00:00.000 : en:Chapter 01
    00:08:09.488 : en:Chapter 02
    00:16:36.412 : en:Chapter 03
    00:20:01.074 : en:Chapter 04
    00:23:05.717 : en:Chapter 05
    00:31:24.132 : en:Chapter 06
    00:37:42.510 : en:Chapter 07
    00:42:22.039 : en:Chapter 08
    00:45:28.892 : en:Chapter 09
    00:49:32.970 : en:Chapter 10
    00:55:07.929 : en:Chapter 11
    01:00:08.438 : en:Chapter 12
    01:07:05.730 : en:Chapter 13
    01:10:47.826 : en:Chapter 14
    01:18:27.661 : en:Chapter 15

    Скриншоты для ознакомления


    Релиз подготовил:
    Размер скачиваемого торрента: 2.74 GB (2941005005 Bytes)

    Аэроплан 2: Продолжение / Airplane II: The Sequel (1982) BDRip (AVC) от MediaClub | P, A торрент скачать бесплатно
    загрузка...
    Рейтинг →
     (голосов: 1, оценка 3/5, голосовать можно 1 раз )

    Другие торренты по теме:

  • Аэроплан / Airplane! (1980) BDRip-AVC от olegek70 | P, L, A торрент скачать бесплатно
  • Аэроплан 2: Продолжение / Airplane II: The Sequel (1982) HDTVRip-AVC от olegek70 | P, A торрент скачать бесплатно
  • Аэроплан 2: Продолжение / Airplane II: The Sequel (1982) BDRemux 1080p от MediaClub | P, A скачать через торрент бесплатно
  • Аэроплан / Airplane! (1980) скачать торрент бесплатно


    • Комментарии (0):

      Информация

      Информация

        Посетители, находящиеся в группе Гости, не могут оставлять комментарии в данной новости.

        ↓ Меню



        ↓ Опрос

        А Вы добавили сайт в закладки?
        Да
        Не


        Top 10 за неделю (Фильмы)