.
Авторизация | Регистрация
» » Тор 2: Царство тьмы / Thor: The Dark World (2013) DCPrip | 3D-Video | Трейлер скачать через торрент бесплатно




    Тор 2: Царство тьмы / Thor: The Dark World (2013) DCPrip | 3D-Video | Трейлер скачать через торрент бесплатно

    Опубликовал: Админ | Дата: 27-02-2015, 11:09 | Просмотров: 1093



    Создали в: 2013
    Создали в: США / Marvel Entertainment, Marvel Studios
    Категория жанра: Фэнтези, боевик, приключения
    Перевод текста: Дублированный

    Дата мировой премьеры: 30 октября 2013
    Дата российской премьеры: 7 ноября 2013, WDSSPR
    Дата выхода DVD/Blu-Ray релиза: 18 марта 2014, Уолт Дисней Компани СНГ

    Главный режиссер: Алан Тейлор
    Актеры: Крис Хемсворт, Натали Портман, Том Хиддлстон, Энтони Хопкинс, Кристофер Экклстон, Идрис Эльба, Кэт Дэннингс, Стеллан Скарсгард

    Сюжет фильма:
    Тору предстоит сразиться за спасение Земли и Девяти Миров от таинственного врага из времен, предшествовавших возникновению вселенной. После событий Тора и Мстителей главный герой борется за восстановление порядка в космосе, но древняя раса во главе с мстительным Малекитом возвращается, чтобы погрузить вселенную обратно во тьму. Столкнувшись с врагом, которому не способен противостоять ни Один, ни весь Асгард, Тор отправляется в самое рискованное путешествие, которое воссоединит его с Джейн Фостер с Земли и заставит пожертвовать всем ради спасения вселенной.




    Время просмотра: 00:01:45
    Качество фильма видео: DCPrip
    Тип видео 3D: Half OverUnder (Вертикальная анаморфная стереопара)
    Порядок ракурсов: левый ракурс первый

    Информация о видео: MPEG-4 AVC/H.264, 1920х1080, 24fps, ~38,6 Мбит/сек
    Информация о звуке: AC3 5.1, 448 Кбит/сек
    MediaInfo
    Общее
    Уникальный идентификатор : 196881175855602845150803560241429117806 (0x941DEF69B3EDEC8A9E6D602F56BA7B6E)
    Полное имя : D:ФИЛЬМЫThor. The Dark World (2013) DCPrip 3D trailer.mkv
    Формат : Matroska
    Версия формата : Version 4 / Version 2
    Размер файла : 503 Мбайт
    Продолжительность : 1 м. 45 с.
    Режим общего битрейта : Переменный
    Общий поток : 39,8 Мбит/сек
    Дата кодирования : UTC 2013-08-05 00:07:15
    Программа кодирования : mkvmerge v6.1.0 (;Old Devil;) built on Mar 2 2013 14:32:37
    Библиотека кодирования : libebml v1.3.0 libmatroska v1.4.0

    Видео
    Идентификатор : 1
    Формат : AVC
    Формат/Информация : Advanced Video Codec
    Профиль формата : High@L5.0
    Параметр CABAC формата : Да
    Параметр ReFrames формата : 4 кадра
    Параметр GOP формата : M=3, N=15
    Идентификатор кодека : V_MPEG4/ISO/AVC
    Продолжительность : 1 м. 46 с.
    Вид битрейта : Переменный
    Битрейт : 38,6 Мбит/сек
    Максимальный битрейт : 100,0 Мбит/сек
    Ширина : 1920 пикселей
    Высота : 1080 пикселей
    Соотношение сторон : 16:9
    Режим частоты кадров : Постоянный
    Частота кадров : 24,000 кадра/сек
    Стандарт вещания : NTSC
    Цветовое пространство : YUV
    Субдискретизация насыщенности : 4:2:0
    Битовая глубина : 8 бит
    Тип развёртки : Прогрессивная
    Бит/(Пиксели*Кадры) : 0.775
    Размер потока : 487 Мбайт (97%)
    Default : Да
    Forced : Нет
    Основные цвета : BT.709
    Характеристики трансфера : BT.709
    Коэффициенты матрицы : BT.709

    Аудио
    Идентификатор : 2
    Формат : AC-3
    Формат/Информация : Audio Coding 3
    Расширение режима : CM (complete main)
    Параметр Endianness формата : Big
    Идентификатор кодека : A_AC3
    Продолжительность : 1 м. 45 с.
    Вид битрейта : Постоянный
    Битрейт : 448 Кбит/сек
    Каналы : 6 каналов
    Расположение каналов : Front: L C R, Side: L R, LFE
    Частота : 48,0 КГц
    Битовая глубина : 16 бит
    Метод сжатия : С потерями
    Размер потока : 5,66 Мбайт (1%)
    Язык : Russian
    Default : Да
    Forced : Нет


    Скриншоты для ознакомления:

    Залил: Саша 1992
    Размер скачиваемого торрента: 502.91 MB (527335778 Bytes)

    Тор 2: Царство тьмы / Thor: The Dark World (2013) DCPrip | 3D-Video | Трейлер скачать через торрент бесплатно
    загрузка...
    Рейтинг →
     (голосов: 1, оценка 3/5, голосовать можно 1 раз )

    Другие торренты по теме:

  • Тор / Thor (2011) BDRip-AVC | iPad торрент скачать бесплатно
  • Тор: Царство тьмы / Thor: The Dark World (2013) HD | Трейлер торрент скачать бесплатно
  • Тор / Thor (2011) BDRip 720p от HQ-ViDEO торрент скачать бесплатно
  • Тор 2 Царство тьмы (2013) торрент скачать бесплатно
  • Тор 2: Царство тьмы / Thor: The Dark World (2013) HDTVRip 1080p | Трейлер скачать через торрент бесплатно
  • Тор 2: Царство тьмы / Thor: The Dark World (2013) TS торрент скачать бесплатно
  • Тор 2: Царство тьмы / Thor: The Dark World (2013) WEBRip-AVC | Звук с TS скачать через торрент бесплатно
  • Тор: Легенда викингов / Legends of Valhalla: Thor (2011) BDRip 720p от HELLYWOOD | Лицензия скачать через торрент бесплатно


    • Комментарии (0):

      Информация

      Информация

        Посетители, находящиеся в группе Гости, не могут оставлять комментарии в данной новости.

        ↓ Меню



        ↓ Опрос

        А Вы добавили сайт в закладки?
        Да
        Не


        Top 10 за неделю (Фильмы)