.
Авторизация | Регистрация
» » Тайное влечение / Adore (2013) BDRip 720p | L1 скачать через торрент бесплатно




    Тайное влечение / Adore (2013) BDRip 720p | L1 скачать через торрент бесплатно

    Опубликовал: Админ | Дата: 27-02-2015, 11:09 | Просмотров: 268



    Детально о кино
    Русское название: Тайное влечение
    Русское название в мировом прокате: Adore
    Создали в: 2013
    Категория жанра: драма
    Главный режиссер: Анн Фонтен
    Актеры: Робин Райт, Наоми Уоттс, Завьер Сэмюэл, Бен Мендельсон, Софи Лоу, Джеймс Фрешвилл, Джессика Тоуви, Гари Свит, Элисон Стэнден, Дэйн Иде

    Сюжет фильма: Главные героини фильма — Лил и Роз — две давние подруги, которые влюбляются в сыновей друг друга. Из-за страха быть осуждёнными обществом, женщины скрывают свои отношения в тайне на протяжении нескольких лет до тех пор, пока их секреты не становятся достоянием общественности. Это открытие не только грозит разрушить жизни обеих подруг, но и ставит перед сложным выбором их сыновей, которые должны решить: жить ли им по проторенной дороге или же следовать своим истинным желаниям.



    Снималось в: Австралия, Франция / Gaumont, Screen Australia, Cine@
    Время просмотра: 01:51:15
    Тип перевода: Любительское (одноголосное) lord666

    Файл
    Тип видео: MKV
    Качество фильма: BDRip 720p
    Информация о видео: 4930 kb/s, 1280x536
    Информация о звуке: Russian: AC3, 384 kb/s (6 ch) / English: DTS, 1510 kb/s (6 ch)





    MI

    Format : Matroska
    Format version : Version 4 / Version 2
    File size : 5.30 GiB
    Duration : 1h 51mn
    Overall bit rate : 6 824 Kbps
    Encoded date : UTC 2013-10-30 17:26:27
    Writing application : mkvmerge v6.1.0 (;Old Devil;) built on Mar 4 2013 09:10:42
    Writing library : libebml v1.3.0 libmatroska v1.4.0

    Video
    ID : 1
    Format : AVC
    Format/Info : Advanced Video Codec
    Format profile : High@L4.1
    Format settings, CABAC : Yes
    Format settings, ReFrames : 10 frames
    Codec ID : V_MPEG4/ISO/AVC
    Duration : 1h 51mn
    Bit rate : 4 930 Kbps
    Width : 1 280 pixels
    Height : 536 pixels
    Display aspect ratio : 2.40:1
    Frame rate : 24.000 fps
    Color space : YUV
    Chroma subsampling : 4:2:0
    Bit depth : 8 bits
    Scan type : Progressive
    Bits/(Pixel*Frame) : 0.299
    Stream size : 3.73 GiB (70%)
    Writing library : x264 core 132 r2310 76a5c3a
    Encoding settings : cabac=1 / ref=10 / deblock=1:-3:-3 / analyse=0x3:0x113 / me=umh / subme=10 / psy=1 / psy_rd=1.00:0.05 / mixed_ref=1 / me_range=32 / chroma_me=1 / trellis=2 / 8x8dct=1 / cqm=0 / deadzone=21,11 / fast_pskip=0 / chroma_qp_offset=-2 / threads=18 / lookahead_threads=1 / sliced_threads=0 / nr=0 / decimate=1 / interlaced=0 / bluray_compat=0 / constrained_intra=0 / bframes=4 / b_pyramid=2 / b_adapt=2 / b_bias=0 / direct=3 / weightb=1 / open_gop=0 / weightp=2 / keyint=250 / keyint_min=24 / scenecut=40 / intra_refresh=0 / rc=2pass / mbtree=0 / bitrate=4930 / ratetol=1.0 / qcomp=0.70 / qpmin=0 / qpmax=69 / qpstep=4 / cplxblur=20.0 / qblur=0.5 / ip_ratio=1.40 / pb_ratio=1.30 / aq=2:1.00
    Language : English
    Default : Yes
    Forced : No

    Audio #1
    ID : 2
    Format : AC-3
    Format/Info : Audio Coding 3
    Mode extension : CM (complete main)
    Format settings, Endianness : Big
    Codec ID : A_AC3
    Duration : 1h 51mn
    Bit rate mode : Constant
    Bit rate : 384 Kbps
    Channel(s) : 6 channels
    Channel positions : Front: L C R, Side: L R, LFE
    Sampling rate : 48.0 KHz
    Bit depth : 16 bits
    Compression mode : Lossy
    Stream size : 306 MiB (6%)
    Language : Russian
    Default : Yes
    Forced : No

    Audio #2
    ID : 3
    Format : DTS
    Format/Info : Digital Theater Systems
    Codec ID : A_DTS
    Duration : 1h 51mn
    Bit rate mode : Constant
    Bit rate : 1 510 Kbps
    Channel(s) : 6 channels
    Channel positions : Front: L C R, Side: L R, LFE
    Sampling rate : 48.0 KHz
    Bit depth : 24 bits
    Compression mode : Lossy
    Stream size : 1.17 GiB (22%)
    Language : English
    Default : No
    Forced : No
    Скриншоты для ознакомления

    Размер скачиваемого торрента: 5.30 GB (5693711297 Bytes)

    Тайное влечение / Adore (2013) BDRip 720p | L1 скачать через торрент бесплатно
    загрузка...
    Рейтинг →
     (голосов: 1, оценка 3/5, голосовать можно 1 раз )

    Другие торренты по теме:

  • Тайное влечение / Adore (2013) BDRip 1080p от CINEMANIA | L1 скачать через торрент бесплатно
  • Тайное влечение / Adore (2013) HDRip | L1 скачать через торрент бесплатно
  • Тайное влечение / Adore (2013) BDRip (AVC) от MediaClub | L1 скачать через торрент бесплатно
  • Тайное влечение / Adore (2013) BDRip 720p от Leonardo and Scarabey | L1 скачать через торрент бесплатно
  • Тайное влечение / Adore (2013) HDRip от Scarabey | L1 торрент скачать бесплатно
  • Тайное влечение / Adore (2013) HDRip от Scarabey | L1 торрент скачать бесплатно
  • Тайное влечение / Adore (2013) BDRip 1080p от CINEMANIA | D скачать через торрент бесплатно
  • Тайное влечение / Adore (2013) BDRip 720p от CINEMANIA | D скачать через торрент бесплатно


    • Комментарии (0):

      Информация

      Информация

        Посетители, находящиеся в группе Гости, не могут оставлять комментарии в данной новости.

        ↓ Меню



        ↓ Опрос

        А Вы добавили сайт в закладки?
        Да
        Не


        Top 10 за неделю (Фильмы)