.
Авторизация | Регистрация
» » Копы в юбках / The Heat (2013) BDRip-AVC | UNRATED | Лицензия скачать через торрент бесплатно




    Копы в юбках / The Heat (2013) BDRip-AVC | UNRATED | Лицензия скачать через торрент бесплатно

    Опубликовал: Админ | Дата: 27-02-2015, 11:09 | Просмотров: 328



    Детально о кино
    Русское название: Копы в юбках
    Русское название в мировом прокате: The Heat
    Создали в: 2013
    Категория жанра: Боевик, комедия, криминал
    Снималось в: США, Twentieth Century Fox Film Corporation, Chernin Entertainment, Dune Entertainment, Dune Entertainment III
    Главный режиссер: Пол Фиг
    Актеры: Сандра Баллок, Мелисса МакКарти, Кэйтлин Олсен, Таран Киллэм, Томас Ф. Уилсон, Майкл Рапапорт, Демиан Бишир, Тони Хейл, Билли Барр, Энди Бакли

    Сюжет фильма: Агенту ФБР и бостонскому полицейскому доверено ответственное задание: выйти на след и обезвредить опасного преступника. И это даже хорошо, что копы — женщины, ведь бандит-то — русский. А непредсказуемости русской смекалки можно противопоставить только столь же непредсказуемую женскую логику.



    Файл
    Качество фильма: BDRip (AVC)
    Информация о видео: MPEG-4 AVC, 1826 Кбит/с, 1024x426
    Информация о звуке: Русский, украинский (AC3, 6 ch, 448 Кбит/с), английский (AC3, 6 ch, 384 Кбит/с)
    Размер скачиваемого торрента: 2.61 ГБ
    Время просмотра: 02:00:20
    Перевод текста: Дублированный лицензия
    Субтитры: Русские, украинские, английские
    MI
    Общее
    Уникальный идентификатор : 194997734387653807049603302803007239918 (0x92B332943DD010A4B16FF3C3AAC276EE)
    Полное имя : C:1The.Heat.2013.UNRATEDKopy.v.ubkah.2013.D.BDRip.h264.mkv
    Формат : Matroska
    Версия формата : Version 2
    Размер файла : 2,61 Гбайт
    Продолжительность : 2 ч. 0 м.
    Общий поток : 3109 Кбит/сек
    Название фильма : Kopy.v.ubkah.2013.D.BDRip.h264.NNM-CLUB.GIU
    Дата кодирования : UTC 2013-10-30 00:14:10
    Программа кодирования : mkvmerge v6.3.0 (;You can;t stop me!;) built on Jun 28 2013 20:09:41
    Библиотека кодирования : libebml v1.3.0 libmatroska v1.4.0

    Видео
    Идентификатор : 1
    Формат : AVC
    Формат/Информация : Advanced Video Codec
    Профиль формата : High@L4.1
    Параметр CABAC формата : Да
    Параметр ReFrames формата : 12 кадров
    Идентификатор кодека : V_MPEG4/ISO/AVC
    Продолжительность : 2 ч. 0 м.
    Битрейт : 1826 Кбит/сек
    Ширина : 1024 пикселя
    Высота : 426 пикселей
    Соотношение сторон : 2,40:1
    Режим частоты кадров : Постоянный
    Частота кадров : 23,976 кадра/сек
    Цветовое пространство : YUV
    Субдискретизация насыщенности : 4:2:0
    Битовая глубина : 8 бит
    Тип развёртки : Прогрессивная
    Бит/(Пиксели*Кадры) : 0.175
    Размер потока : 1,49 Гбайт (57%)
    Заголовок : -=Release for NNM-CLUB.RU=-
    Библиотека кодирования : x264 core 133 r2334 a3ac64b
    Настройки программы : cabac=1 / ref=12 / deblock=1:-3:-3 / analyse=0x3:0x113 / me=umh / subme=10 / psy=1 / psy_rd=1.00:0.25 / mixed_ref=0 / me_range=32 / chroma_me=1 / trellis=2 / 8x8dct=1 / cqm=0 / deadzone=21,11 / fast_pskip=1 / chroma_qp_offset=-4 / threads=12 / lookahead_threads=2 / sliced_threads=0 / nr=0 / decimate=0 / interlaced=0 / bluray_compat=0 / constrained_intra=0 / bframes=7 / b_pyramid=2 / b_adapt=2 / b_bias=0 / direct=3 / weightb=1 / open_gop=0 / weightp=2 / keyint=240 / keyint_min=23 / scenecut=40 / intra_refresh=0 / rc_lookahead=40 / rc=2pass / mbtree=1 / bitrate=1826 / ratetol=1.0 / qcomp=0.70 / qpmin=0 / qpmax=69 / qpstep=4 / cplxblur=20.0 / qblur=0.5 / vbv_maxrate=62500 / vbv_bufsize=78125 / nal_hrd=none / ip_ratio=1.40 / aq=1:1.00
    Язык : English
    Default : Нет
    Forced : Нет

    Аудио #1
    Идентификатор : 2
    Формат : AC-3
    Формат/Информация : Audio Coding 3
    Расширение режима : CM (complete main)
    Параметр Endianness формата : Big
    Идентификатор кодека : A_AC3
    Продолжительность : 2 ч. 0 м.
    Вид битрейта : Постоянный
    Битрейт : 448 Кбит/сек
    Каналы : 6 каналов
    Расположение каналов : Front: L C R, Side: L R, LFE
    Частота : 48,0 КГц
    Битовая глубина : 16 бит
    Метод сжатия : С потерями
    Размер потока : 386 Мбайт (14%)
    Заголовок : BD EUR 448
    Язык : Russian
    Default : Да
    Forced : Нет

    Аудио #2
    Идентификатор : 3
    Формат : AC-3
    Формат/Информация : Audio Coding 3
    Расширение режима : CM (complete main)
    Параметр Endianness формата : Big
    Идентификатор кодека : A_AC3
    Продолжительность : 2 ч. 0 м.
    Вид битрейта : Постоянный
    Битрейт : 448 Кбит/сек
    Каналы : 6 каналов
    Расположение каналов : Front: L C R, Side: L R, LFE
    Частота : 48,0 КГц
    Битовая глубина : 16 бит
    Метод сжатия : С потерями
    Размер потока : 386 Мбайт (14%)
    Заголовок : BD EUR 448
    Язык : Ukrainian
    Default : Нет
    Forced : Нет

    Аудио #3
    Идентификатор : 4
    Формат : AC-3
    Формат/Информация : Audio Coding 3
    Расширение режима : CM (complete main)
    Параметр Endianness формата : Big
    Идентификатор кодека : A_AC3
    Продолжительность : 2 ч. 0 м.
    Вид битрейта : Постоянный
    Битрейт : 384 Кбит/сек
    Каналы : 6 каналов
    Расположение каналов : Front: L C R, Side: L R, LFE
    Частота : 48,0 КГц
    Битовая глубина : 16 бит
    Метод сжатия : С потерями
    Размер потока : 331 Мбайт (12%)
    Заголовок : AC3.384Kbps (6ch) English
    Язык : English
    Default : Нет
    Forced : Нет

    Текст #1
    Идентификатор : 5
    Формат : UTF-8
    Идентификатор кодека : S_TEXT/UTF8
    Идентификатор кодека/Информация : UTF-8 Plain Text
    Язык : Russian
    Default : Нет
    Forced : Нет

    Текст #2
    Идентификатор : 6
    Формат : UTF-8
    Идентификатор кодека : S_TEXT/UTF8
    Идентификатор кодека/Информация : UTF-8 Plain Text
    Язык : Ukrainian
    Default : Нет
    Forced : Нет

    Текст #3
    Идентификатор : 7
    Формат : UTF-8
    Идентификатор кодека : S_TEXT/UTF8
    Идентификатор кодека/Информация : UTF-8 Plain Text
    Заголовок : English (Full)
    Язык : English
    Default : Нет
    Forced : Нет

    Текст #4
    Идентификатор : 8
    Формат : UTF-8
    Идентификатор кодека : S_TEXT/UTF8
    Идентификатор кодека/Информация : UTF-8 Plain Text
    Заголовок : English (SDH)
    Язык : English
    Default : Нет
    Forced : Нет

    Текст #5
    Идентификатор : 9
    Формат : UTF-8
    Идентификатор кодека : S_TEXT/UTF8
    Идентификатор кодека/Информация : UTF-8 Plain Text
    Заголовок : English (SDH-Colored)
    Язык : English
    Default : Нет
    Forced : Нет

    Меню
    00:00:00.000 : en:00:00:00.000
    00:01:46.022 : en:00:01:46.022
    00:05:28.453 : en:00:05:28.453
    00:07:15.977 : en:00:07:15.977
    00:11:26.435 : en:00:11:26.435
    00:14:17.898 : en:00:14:17.898
    00:16:38.956 : en:00:16:38.956
    00:19:50.939 : en:00:19:50.939
    00:23:23.610 : en:00:23:23.610
    00:26:18.118 : en:00:26:18.118
    00:30:11.976 : en:00:30:11.976
    00:34:07.837 : en:00:34:07.837
    00:36:27.101 : en:00:36:27.101
    00:39:12.975 : en:00:39:12.975
    00:44:44.139 : en:00:44:44.139
    00:47:59.584 : en:00:47:59.584
    00:52:59.801 : en:00:52:59.801
    00:56:13.786 : en:00:56:13.786
    01:00:57.778 : en:01:00:57.778
    01:03:25.801 : en:01:03:25.801
    01:05:47.151 : en:01:05:47.151
    01:09:34.795 : en:01:09:34.795
    01:17:00.574 : en:01:17:00.574
    01:23:38.638 : en:01:23:38.638
    01:26:51.622 : en:01:26:51.622
    01:28:37.019 : en:01:28:37.019
    01:31:07.420 : en:01:31:07.420
    01:34:08.559 : en:01:34:08.559
    01:37:03.233 : en:01:37:03.233
    01:39:41.224 : en:01:39:41.224
    01:44:20.670 : en:01:44:20.670
    01:45:41.501 : en:01:45:41.501
    01:48:54.569 : en:01:48:54.569
    01:51:15.710 : en:01:51:15.710
    01:54:02.710 : en:01:54:02.710
    01:55:24.876 : en:01:55:24.876

    Скриншоты для ознакомления



    Размер скачиваемого торрента: 2.61 GB (2806195500 Bytes)

    Копы в юбках / The Heat (2013) BDRip-AVC | UNRATED | Лицензия скачать через торрент бесплатно
    загрузка...
    Рейтинг →
     (голосов: 1, оценка 5/5, голосовать можно 1 раз )

    Другие торренты по теме:

  • Голливудские копы / Hollywood Homicide (2003) BDRip от NovaLan торрент скачать бесплатно
  • Копия верна / Certified Copy / Copie conforme (2010) BDRip-AVC от Rulya74 торрент скачать бесплатно
  • Библиотекарь 2: Возвращение в Копи Царя Соломона / The Librarian: Return to King Solomon (2006) BDRemux 1080p от HDTracker торрент скачать бесплатно
  • Библиотекарь: В поисках копья судьбы / The Librarian: Quest for the Spear (2004) BDRemux 1080i от HDTracker торрент скачать бесплатно
  • Копы в глубоком запасе / The Other Guys (2010) HDRip от Scarabey | Театральная версия торрент скачать бесплатно
  • Копы-новобранцы / Rookie Blue (2012) WEB-DLRip | P торрент скачать бесплатно
  • Копы в юбках / The Heat (2013) TS торрент скачать бесплатно
  • Копы в юбках / The Heat (2013) HDTVRip | Звук с TS торрент скачать бесплатно


    • Комментарии (0):

      Информация

      Информация

        Посетители, находящиеся в группе Гости, не могут оставлять комментарии в данной новости.

        ↓ Меню



        ↓ Опрос

        А Вы добавили сайт в закладки?
        Да
        Не


        Top 10 за неделю (Фильмы)