.
Авторизация | Регистрация
» » Мэрайа Мунди и шкатулка Мидаса / The Adventurer: The Curse of the Midas Box (2013) DVDRip от Youtracker | P | лицензия скачать через торрент бесплатно




    Мэрайа Мунди и шкатулка Мидаса / The Adventurer: The Curse of the Midas Box (2013) DVDRip от Youtracker | P | лицензия скачать через торрент бесплатно

    Опубликовал: Админ | Дата: 27-02-2015, 11:09 | Просмотров: 295

    The new name for adventure



    Снималось в: Великобритания / Afrodita Audiovisual, A.I.E., Cinema One, uFilm
    Категория жанра: фэнтези, приключения, семейный
    Создали в: 2013
    Время просмотра: 01:34:35

    Перевод текста: Профессиональный (многоголосый, закадровый)
    Субтитры подготовлены: нет
    Оригинальная аудиодорожка: нет

    Главный режиссер: Джонатан Ньюман / Jonathan Newman

    Актеры: Майкл Шин, Лина Хиди, Сэм Нил, Йоан Гриффит, Анайрин Барнард, Кили Хоуз, Тристан Геммилл, Дэниэл Вильде, Мелла Каррон, Ксавьер Аткинс...

    Сюжет: Мир семнадцатилетнего Мэрайа Мунди меняется, когда его родители внезапно исчезают, оставив юношу и его брата Феликса на произвол судьбы.



    Качество фильма: DVDRip / DVD9 R5
    Тип видео: AVI

    Информация о видео: 720x400 (16:9), 25.000 fps, XVID ~1812 kbps avg, 0.252 bit/pixel
    Информация о звуке: Русский 48 kHz, AC3, 6 ch, 384.00 kbps Constant

    Раздача от:
    MediaInfo

    Общее
    Полное имя : Meraya.Mundi.2013.P.DVDRip_Youtracker_by_avproh.avi
    Формат : AVI
    Формат/Информация : Audio Video Interleave
    Размер файла : 1,46 Гбайт
    Продолжительность : 1 ч. 34 м.
    Общий поток : 2205 Кбит/сек
    Программа кодирования : VirtualDubMod 1.5.10.3 | www.virtualdub-fr.org || (build 2550/release)
    Библиотека кодирования : VirtualDubMod build 2550/release

    Видео
    Идентификатор : 0
    Формат : MPEG-4 Visual
    Профиль формата : Advanced Simple@L5
    Параметр BVOP формата : 1
    Параметр QPel формата : Нет
    Параметр GMC формата : Без точки перехода
    Параметр матрицы формата : Выборочная
    Идентификатор кодека : XVID
    Идентификатор кодека/Подсказка : XviD
    Продолжительность : 1 ч. 34 м.
    Битрейт : 1812 Кбит/сек
    Ширина : 720 пикселей
    Высота : 400 пикселей
    Соотношение сторон : 16:9
    Частота кадров : 25,000 кадров/сек
    Цветовое пространство : YUV
    Субдискретизация насыщенности : 4:2:0
    Битовая глубина : 8 бит
    Тип развёртки : Прогрессивная
    Метод сжатия : С потерями
    Бит/(Пиксели*Кадры) : 0.252
    Размер потока : 1,20 Гбайт (82%)
    Библиотека кодирования : XviD 73

    Аудио
    Идентификатор : 1
    Формат : AC-3
    Формат/Информация : Audio Coding 3
    Расширение режима : CM (complete main)
    Параметр Endianness формата : Big
    Идентификатор кодека : 2000
    Продолжительность : 1 ч. 34 м.
    Вид битрейта : Постоянный
    Битрейт : 384 Кбит/сек
    Каналы : 6 каналов
    Расположение каналов : Front: L C R, Side: L R, LFE
    Частота : 48,0 КГц
    Битовая глубина : 16 бит
    Метод сжатия : С потерями
    Размер потока : 260 Мбайт (17%)
    Выравнивание : Разделение по промежуткам
    Продолжительность промежутка : 40 мс. (1,00 видеокадр)
    Время предзагрузки промежутка : 500 мс.

    Скриншоты для ознакомления:



    Сравнение:

    http://rutor.org/torrent/311408/

    http://screenshotcomparison.com/comparison/46899

    Залил: avproh
    Размер скачиваемого торрента: 1.46 GB (1564481536 Bytes)

    Мэрайа Мунди и шкатулка Мидаса / The Adventurer: The Curse of the Midas Box (2013) DVDRip от Youtracker | P | лицензия скачать через торрент бесплатно
    загрузка...
    Рейтинг →
     (голосов: 1, оценка 3/5, голосовать можно 1 раз )

    Другие торренты по теме:



      Комментарии (0):

      Информация

      Информация

        Посетители, находящиеся в группе Гости, не могут оставлять комментарии в данной новости.

        ↓ Меню



        ↓ Опрос

        А Вы добавили сайт в закладки?
        Да
        Не


        Top 10 за неделю (Фильмы)