.
Авторизация | Регистрация
» » Лимб / Haunter (2013) BDRip-AVC от MediaClub | D скачать через торрент бесплатно




    Лимб / Haunter (2013) BDRip-AVC от MediaClub | D скачать через торрент бесплатно

    Опубликовал: Админ | Дата: 27-02-2015, 11:09 | Просмотров: 263



    Детально о кино
    Русское название: Лимб
    Русское название в мировом прокате: Haunter
    Создали в: 2013
    Категория жанра: Ужасы, триллер, детектив
    Главный режиссер: Винченцо Натали
    Актеры: Эбигейл Бреслин, Питер Аутербридж, Мишель Нолден, Стивен МакХэтти, Питер ДаКуна, Элинор Цихи, Дэвид Нолл, Саманта Вайнштейн, Дэвид Хьюлетт, Сара Мэннинен

    Сюжет фильма:
    На первый взгляд, Лиза с её младшим братом и родителями — совершенно обыкновенная семья, ведущая спокойную, размеренную жизнь. Но никто, кроме девочки, не подозревает, что они проживают один и тот же день уже не в первый раз…



    Снималось в: Канада, Франция, Canadian Audio-Visual Certification Office (CAVCO), Canadian Film or Video Production Tax Credit (CPTC), Copper Heart Entertainment
    Время просмотра: 01:36:53
    Перевод текста: Дублированный

    Файл
    Кодек для видео: x264
    Качество фильма: BDRip (AVC)
    Информация о видео: MPEG-4 AVC, 2578 Кбит/с, 1024x576, 24.000 кадр/с
    Информация о звуке: AC3, 6 ch, 448 Кбит/с

    Семпл

    MI
    Format : Matroska
    Format version : Version 4 / Version 2
    File size : 2.04 GiB
    Duration : 1h 36mn
    Overall bit rate : 3 018 Kbps
    Movie name : -=MediaClub-Odessit=-
    Encoded date : UTC 2013-10-29 23:14:35
    Writing application : mkvmerge v6.2.0 (;Promised Land;) built on Apr 28 2013 12:22:01
    Writing library : libebml v1.3.0 libmatroska v1.4.0

    Video
    ID : 1
    Format : AVC
    Format/Info : Advanced Video Codec
    Format profile : High@L4.1
    Format settings, CABAC : Yes
    Format settings, ReFrames : 10 frames
    Codec ID : V_MPEG4/ISO/AVC
    Duration : 1h 36mn
    Bit rate : 2 578 Kbps
    Width : 1 024 pixels
    Height : 576 pixels
    Display aspect ratio : 16:9
    Frame rate : 24.000 fps
    Color space : YUV
    Chroma subsampling : 4:2:0
    Bit depth : 8 bits
    Scan type : Progressive
    Bits/(Pixel*Frame) : 0.182
    Stream size : 1.70 GiB (83%)
    Writing library : x264 core 133 r2334 a3ac64b
    Encoding settings : cabac=1 / ref=10 / deblock=1:-2:-2 / analyse=0x3:0x133 / me=umh / subme=11 / psy=1 / psy_rd=1.00:0.20 / mixed_ref=1 / me_range=48 / chroma_me=1 / trellis=2 / 8x8dct=1 / cqm=0 / deadzone=21,11 / fast_pskip=0 / chroma_qp_offset=-3 / threads=6 / lookahead_threads=1 / sliced_threads=0 / nr=0 / decimate=0 / interlaced=0 / bluray_compat=0 / constrained_intra=0 / bframes=9 / b_pyramid=2 / b_adapt=2 / b_bias=0 / direct=3 / weightb=1 / open_gop=0 / weightp=2 / keyint=240 / keyint_min=24 / scenecut=40 / intra_refresh=0 / rc=2pass / mbtree=0 / bitrate=2578 / ratetol=1.0 / qcomp=0.60 / qpmin=0 / qpmax=69 / qpstep=4 / cplxblur=20.0 / qblur=0.5 / ip_ratio=1.40 / pb_ratio=1.30 / aq=1:1.00
    Language : English

    Audio
    ID : 2
    Format : AC-3
    Format/Info : Audio Coding 3
    Mode extension : CM (complete main)
    Codec ID : A_AC3
    Duration : 1h 36mn
    Bit rate mode : Constant
    Bit rate : 448 Kbps
    Channel(s) : 6 channels
    Channel positions : Front: L C R, Side: L R, LFE
    Sampling rate : 48.0 KHz
    Bit depth : 16 bits
    Compression mode : Lossy
    Stream size : 310 MiB (15%)
    Title : Дублированный
    Language : Russian

    Menu
    00:00:00.000 : :Chapter 01
    00:08:37.583 : :Chapter 02
    00:16:48.083 : :Chapter 03
    00:24:49.083 : :Chapter 04
    00:33:53.500 : :Chapter 05
    00:43:45.208 : :Chapter 06
    00:53:43.000 : :Chapter 07
    01:03:11.375 : :Chapter 08
    01:11:31.333 : :Chapter 09
    01:19:01.208 : :Chapter 10
    01:23:59.875 : :Chapter 11
    01:31:29.708 : :Chapter 12
    01:36:49.916 : :Chapter 13

    Скриншоты для ознакомления


    Релиз подготовил:
    Размер скачиваемого торрента: 2.04 GB (2193336105 Bytes)

    Лимб / Haunter (2013) BDRip-AVC от MediaClub | D скачать через торрент бесплатно
    загрузка...
    Рейтинг →
     (голосов: 1, оценка 4/5, голосовать можно 1 раз )

    Другие торренты по теме:

  • Лимб (2013) скачать через торрент бесплатно
  • Лимб / Haunter (2013) DVDRip | Лицензия скачать через торрент бесплатно
  • Лимб / Haunter (2013) DVDRip от Youtracker | D | лицензия торрент скачать бесплатно
  • Лимб / Haunter (2013) DVDRip-AVC от Youtracker | D | лицензия торрент скачать бесплатно
  • Лимб / Haunter (2013) WEB-DLRip 720p | Лицензия торрент скачать бесплатно
  • Лимб / Haunter (2013) WEB-DLRip | Лицензия торрент скачать бесплатно
  • Лимб / Haunter (2013) Blu-Ray 1080p от HDClub | Лицензия торрент скачать бесплатно
  • Лимб / Haunter (2013) Blu-Ray Remux 1080p | Лицензия торрент скачать бесплатно


    • Комментарии (0):

      Информация

      Информация

        Посетители, находящиеся в группе Гости, не могут оставлять комментарии в данной новости.

        ↓ Меню



        ↓ Опрос

        А Вы добавили сайт в закладки?
        Да
        Не


        Top 10 за неделю (Фильмы)