.
Авторизация | Регистрация
Хочешь лучшие торренты? Добавь свой email!
Добавить
» » Улица потрошителя / Ripper Street (2013) HDTVRip | NewStudio скачать через торрент бесплатно




    Улица потрошителя / Ripper Street (2013) HDTVRip | NewStudio скачать через торрент бесплатно

    Опубликовал: Админ | Дата: 27-02-2015, 11:09 | Просмотров: 290



    Детально о кино
    Русское название: Улица потрошителя
    Русское название в мировом прокате: Ripper Street
    Создали в: 2013
    Категория жанра: криминал, детектив
    Главный режиссер: Энди Уилсон, Том Шенклэнд, Колм МакКарти
    Актеры: Мэтью Макфейден, Джером Флинн, Адам Ротенберг, Jonathan Barnwell, Дэвид Уилмот, МайАнна Бёринг, Шарлин МакКенна, Ian Bannon, Аманда Хейл, Ребекка Граймс

    Сюжет фильма:
    События данного сериала разворачиваются в Лондоне 1889 года, сразу после громких убийств, совершенных Джеком Потрошителем. Команда детективов расследует преступления, попутно стараясь успокоить панику среди жителей Ист-Энда.



    Снималось в: Великобритания, Ирландия
    Киностудия: Tiger Aspect Productions, Lookout Point, BBC Worldwide
    Время просмотра: ~ 00:55:00 серия
    Перевод текста: Профессиональный (многоголосый, закадровый) |NewStudio|

    Файл
    Кодек для видео: XviD / MP3
    Качество фильма: HDTVRip
    Информация о видео: 720x400 (16:9), 23.976 fps, 1380 kbps, 0.200 bit/pixel
    Информация о звуке:
    Аудио 1: 48 kHz, 2 ch, 128 kbps - NewStudio
    Аудио 2: 48 kHz, 2 ch, 128 kbps - English

    Скриншоты для ознакомления
    MediaInfo
    General
    Complete name : D:ЗагрузкиУлица потрошителя (2 сезон любимого сериала)Ripper.Street.s02e01.HDTVRip.NewStudio.TV.avi
    Format : AVI
    Format/Info : Audio Video Interleave
    File size : 699 MiB
    Duration : 59mn 15s
    Overall bit rate : 1 650 Kbps
    Writing application : VirtualDubMod 1.5.10.2 (build 2540/release)
    Writing library : VirtualDubMod build 2540/release

    Video
    ID : 0
    Format : MPEG-4 Visual
    Format profile : Advanced Simple@L5
    Format settings, BVOP : Yes
    Format settings, QPel : No
    Format settings, GMC : No warppoints
    Format settings, Matrix : Default (MPEG)
    Codec ID : XVID
    Codec ID/Hint : XviD
    Duration : 59mn 15s
    Bit rate : 1 380 Kbps
    Width : 720 pixels
    Height : 400 pixels
    Display aspect ratio : 16:9
    Frame rate : 23.976 fps
    Color space : YUV
    Chroma subsampling : 4:2:0
    Bit depth : 8 bits
    Scan type : Progressive
    Compression mode : Lossy
    Bits/(Pixel*Frame) : 0.200
    Stream size : 585 MiB (84%)
    Writing library : XviD 64

    Audio #1
    ID : 1
    Format : MPEG Audio
    Format version : Version 1
    Format profile : Layer 3
    Mode : Joint stereo
    Codec ID : 55
    Codec ID/Hint : MP3
    Duration : 59mn 15s
    Bit rate mode : Constant
    Bit rate : 128 Kbps
    Channel count : 2 channels
    Sampling rate : 48.0 KHz
    Compression mode : Lossy
    Stream size : 54.3 MiB (8%)
    Alignment : Aligned on interleaves
    Interleave, duration : 42 ms (1.00 video frame)
    Interleave, preload duration : 504 ms

    Audio #2
    ID : 2
    Format : MPEG Audio
    Format version : Version 1
    Format profile : Layer 3
    Mode : Joint stereo
    Codec ID : 55
    Codec ID/Hint : MP3
    Duration : 59mn 15s
    Bit rate mode : Constant
    Bit rate : 128 Kbps
    Channel count : 2 channels
    Sampling rate : 48.0 KHz
    Compression mode : Lossy
    Stream size : 54.3 MiB (8%)
    Alignment : Aligned on interleaves
    Interleave, duration : 42 ms (1.00 video frame)
    Interleave, preload duration : 504 ms
    Раздача ведётся путём добавления новых серий
    Раздача ведётся путём добавления новых серий; при каждом добавлении создаётся новый торрент. Чтобы начать докачку новой серии, пользователям необходимо сделать следующее:
    (1) остановить скачивание,
    (2) удалить старый торрент у себя из клиента (старые серии удалять не надо),
    (3) скачать новый торрент и запустить его у себя в клиенте вместо старого, при этом указать клиенту путь в старую папку куда и должно происходить скачивание новых серий.

    Ваш клиент при этом должен произвести хеширование (проверку) старой папки (если не производит сам - помогите ему сделать это), и будет докачивать только те серии которых у вас ещё нет. Старые серии при этом не удаляются, а продолжают раздаваться!

    Eсли вы уже удалили старые серии, то предотвратить повторную закачку старых серий можно, отжав галочку в соответствующих местах при запуске нового торрента. По возможности, желательно не удалять старые серии как можно дольше чтобы релизёр не столько продолжал раздавать старые серии, а смог сконцентрироваться на новых.

    Размер скачиваемого торрента: 699.36 MB (733333504 Bytes)

    Улица потрошителя / Ripper Street (2013) HDTVRip | NewStudio скачать через торрент бесплатно
    загрузка...
    Рейтинг →
     (голосов: 1, оценка 3/5, голосовать можно 1 раз )

    Другие торренты по теме:

  • Улица потрошителя / Ripper Street (2012) HDTVRip 720p | NewStudio
  • Улица потрошителя / Ripper Street (2012) WEB-DL 1080p | NewStudio скачать через торрент бесплатно
  • Улица потрошителя / Ripper Street (2012) WEB-DLRip | NewStudio скачать через торрент бесплатно
  • Улица потрошителя / Ripper Street (2013) HDTV 720p | NewStudio
  • Улица потрошителя / Ripper Street (2013) WEB-DL 1080p от MediaClub | P
  • Улица потрошителя / Ripper Street (2012) WEB-DL 720p от MediaClub | P
  • Улица потрошителя / Ripper Street (2013) WEB-DL 720p от MediaClub | P
  • Улица потрошителя / Ripper Street (2014) WEBRip | NewStudio


    • Комментарии (0):

      Информация

      Информация

        Посетители, находящиеся в группе Гости, не могут оставлять комментарии в данной новости.

        ↓ Меню



        ↓ Опрос

        А Вы добавили сайт в закладки?
        Да
        Не


        Top 10 за месяц (Фильмы)