.
Авторизация | Регистрация
Хочешь лучшие торренты? Добавь свой email!
Добавить
» » Условия контракта 2 (2013) HDTV 1080i скачать через торрент бесплатно




    Условия контракта 2 (2013) HDTV 1080i скачать через торрент бесплатно

    Опубликовал: Админ | Дата: 27-02-2015, 11:09 | Просмотров: 918



    Детально о кино
    Русское название: Условия контракта 2
    Создали в: 2013
    Категория жанра: Мелодрама
    Главный режиссер: Олег Массарыгин
    Актеры: Елена Великанова, Кирилл Сафонов, Наталья Рудова, Валентина Панина, Любовь Тихомирова, Максим Литовченко, Юлия Шиферштейн, Александр Андриенко, Галина Гусева, Артём Осипов, Юрий Сазонов, Александр Фарбер, Алексей Фатеев, Людмила Титова, Андрей Сорока, Ксения Непотребная, Марина Блейк, Мария Болтнева, Юрий Грубник, Андрей Межулис, Сергей Тезов, Елена Карпович, Мария Букнис, Наталия Селиверстова (II), Татьяна Пискарёва, Сергей Бачурский, Ксения Энтелис, Олег Осипов (II)

    Сюжет фильма:
    Это история главных героев сериала Марии и Олега, которые отмечают годовщину свадьбы. Большой загородный дом, заботливый муж, подрастающая дочка – кажется, теперь у Маши есть всё, о чем только можно мечтать. Однако праздник превращается в ссору – между супругами за этот год накопилось множество неразрешенных проблем. Они все больше отдаляются друг от друга…


    Снималось в: Россия
    Киностудия: ЗАО АРТЛАЙН
    Время просмотра: ~00:48:00


    Файл
    Кодек для видео: H.264
    Качество фильма: HDTV 1080i
    Информация о видео: 1920x1080, 25fps, ~ 9 Мбит/сек, 0.175 bit/pixel
    Информация о звуке: 48000 Гц, 2ch, 384 Кбит/сек

    Семпл

    MediaInfo
    Общее
    General
    ID : 1 (0x1)
    Complete name : D:ВидеоУсловия контракта 2 (1080i)1.ts
    Format : MPEG-TS
    File size : 3.14 GiB
    Duration : 47mn 38s
    Overall bit rate mode : Variable
    Overall bit rate : 9 448 Kbps
    Video
    ID : 305 (0x131)
    Menu ID : 1 (0x1)
    Format : AVC
    Format/Info : Advanced Video Codec
    Format profile : High@L4.0
    Format settings, CABAC : Yes
    Format settings, ReFrames : 3 frames
    Format settings, GOP : M=4, N=28
    Codec ID : 27
    Duration : 47mn 38s
    Bit rate : 8 593 Kbps
    Width : 1 920 pixels
    Height : 1 080 pixels
    Display aspect ratio : 16:9
    Frame rate : 25.000 fps
    Standard : Component
    Color space : YUV
    Chroma subsampling : 4:2:0
    Bit depth : 8 bits
    Scan type : Interlaced
    Scan order : Top Field First
    Bits/(Pixel*Frame) : 0.166
    Stream size : 2.86 GiB (91%)
    Color primaries : BT.709
    Transfer characteristics : BT.709
    Matrix coefficients : BT.709
    Audio
    ID : 415 (0x19F)
    Menu ID : 1 (0x1)
    Format : AC-3
    Format/Info : Audio Coding 3
    Mode extension : CM (complete main)
    Format settings, Endianness : Big
    Codec ID : 6
    Duration : 47mn 38s
    Bit rate mode : Constant
    Bit rate : 384 Kbps
    Channel count : 2 channels
    Channel positions : Front: L R
    Sampling rate : 48.0 KHz
    Bit depth : 16 bits
    Compression mode : Lossy
    Stream size : 131 MiB (4%)
    Language : Russian

    Скриншоты для ознакомления

    Залил: Владислав610
    Размер скачиваемого торрента: 27.73 GB (29773626364 Bytes)

    Условия контракта 2 (2013) HDTV 1080i скачать через торрент бесплатно
    загрузка...
    Рейтинг →
     (голосов: 1, оценка 5/5, голосовать можно 1 раз )

    Другие торренты по теме:

  • Условия контракта - 2 (2012) DVB от Files-x
  • Условия контракта - 2 (2012) SATRip от Files-x
  • Условия контракта (2013) DVB от Getty
  • Условия контракта - 2 (2012) HDTVRip от Files-x
  • Условия контракта - 2 (2012) HDTVRip 720p


    • Комментарии (0):

      Информация

      Информация

        Посетители, находящиеся в группе Гости, не могут оставлять комментарии в данной новости.

        ↓ Меню



        ↓ Опрос

        А Вы добавили сайт в закладки?
        Да
        Не


        Top 10 за месяц (Фильмы)