.
Авторизация | Регистрация
» » Королёк – птичка певчая / Calikusu (2013) WEB-DLRip | L1 скачать через торрент бесплатно




    Королёк – птичка певчая / Calikusu (2013) WEB-DLRip | L1 скачать через торрент бесплатно

    Опубликовал: Админ | Дата: 27-02-2015, 11:09 | Просмотров: 1436



    Детально о кино
    Русское название: Королёк – птичка певчая
    Русское название в мировом прокате: Calikusu
    Создали в: 2013
    Категория жанра: драма, мелодрама, история
    Главный режиссер: Чаган Ырмак, Доган Юмит Караджа
    Актеры: Фахрийе Эвджен, Бурак Озчивит, Pinar Caglar Gencturk, Deniz Celiloglu, Гюнес Хаят, Ebru Helvacioglu, Hulya Gulsen Irmak, Elif Iskender, Asli Icozu, Su Kutlu

    Сюжет фильма:
    Главная героиня фильма, Фериде, живет с теткой и ее сыном Кямраном. Повзрослевшая Фериде неожиданно для себя влюбляется в кузена. Ее тайна становится известна жителям деревни. Правда, вместе с этим выясняется, что и Кямран тоже любит Фериде.


    Официальный сайт
    Снималось в: Турция
    Киностудия: TIMS
    Время просмотра: ~01:52:00 серия
    Перевод текста: Любительский (одноголосый закадровый) turok1990

    Файл
    Кодек для видео: XviD / MP3
    Качество фильма: WEB-DLRip
    Информация о видео: MPEG4, XviD, 720x400 (16:9), 25.000 fps, 1 444 Kbps (0.201 bit/pixel)
    Информация о звуке: MP3, 44.1 KHz, 2 ch, 192 Kbps, CBR

    Семпл

    Скриншоты для ознакомления
    MediaInfo
    General
    Complete name : /media/torrent/Королек - птичка певчая/Calikusu.01.WEB-DLRip.avi
    Format : AVI
    Format/Info : Audio Video Interleave
    File size : 1.37 GiB
    Duration : 1h 59mn
    Overall bit rate : 1 646 Kbps
    Writing application : VirtualDubMod 1.5.10.3 | www.virtualdub-fr.org || (build 2550/release)
    Writing library : VirtualDubMod build 2550/release

    Video
    ID : 0
    Format : MPEG-4 Visual
    Format profile : Advanced Simple@L5
    Format settings, BVOP : 2
    Format settings, QPel : No
    Format settings, GMC : No warppoints
    Format settings, Matrix : Default (H.263)
    Codec ID : XVID
    Codec ID/Hint : XviD
    Duration : 1h 59mn
    Bit rate : 1 444 Kbps
    Width : 720 pixels
    Height : 400 pixels
    Display aspect ratio : 16:9
    Frame rate : 25.000 fps
    Color space : YUV
    Chroma subsampling : 4:2:0
    Bit depth : 8 bits
    Scan type : Progressive
    Compression mode : Lossy
    Bits/(Pixel*Frame) : 0.201
    Stream size : 1.21 GiB (88%)
    Writing library : XviD 1.2.1 (UTC 2008-12-04)

    Audio
    ID : 1
    Format : MPEG Audio
    Format version : Version 1
    Format profile : Layer 3
    Codec ID : 55
    Codec ID/Hint : MP3
    Duration : 1h 59mn
    Bit rate mode : Constant
    Bit rate : 192 Kbps
    Channel(s) : 2 channels
    Sampling rate : 44.1 KHz
    Compression mode : Lossy
    Stream size : 164 MiB (12%)
    Alignment : Split accross interleaves
    Interleave, duration : 40 ms (1.00 video frame)
    Interleave, preload duration : 500 ms
    Writing library : L3.99r
    Encoding settings : -m s -V 4 -q 2 -lowpass 18.6 -b 192
    Раздача ведётся путём добавления новых серий
    Раздача ведётся путём добавления новых серий; при каждом добавлении создаётся новый торрент. Чтобы начать докачку новой серии, пользователям необходимо сделать следующее:
    (1) остановить скачивание,
    (2) удалить старый торрент у себя из клиента (старые серии удалять не надо),
    (3) скачать новый торрент и запустить его у себя в клиенте вместо старого, при этом указать клиенту путь в старую папку куда и должно происходить скачивание новых серий.

    Ваш клиент при этом должен произвести хеширование (проверку) старой папки (если не производит сам - помогите ему сделать это), и будет докачивать только те серии которых у вас ещё нет. Старые серии при этом не удаляются, а продолжают раздаваться!

    Eсли вы уже удалили старые серии, то предотвратить повторную закачку старых серий можно, отжав галочку в соответствующих местах при запуске нового торрента. По возможности, желательно не удалять старые серии как можно дольше чтобы релизёр не столько продолжал раздавать старые серии, а смог сконцентрироваться на новых.

    Размер скачиваемого торрента: 5.25 GB (5633817378 Bytes)

    Королёк – птичка певчая / Calikusu (2013) WEB-DLRip | L1 скачать через торрент бесплатно
    загрузка...
    Рейтинг →
     (голосов: 1, оценка 5/5, голосовать можно 1 раз )

    Другие торренты по теме:



      Комментарии (0):

      Информация

      Информация

        Посетители, находящиеся в группе Гости, не могут оставлять комментарии в данной новости.

        ↓ Меню



        ↓ Опрос

        А Вы добавили сайт в закладки?
        Да
        Не


        Top 10 за неделю (Фильмы)