.
Авторизация | Регистрация
» » Борджиа (ФГ) / Borgia (2013) HDTVRip 720p | Sub скачать через торрент бесплатно




    Борджиа (ФГ) / Borgia (2013) HDTVRip 720p | Sub скачать через торрент бесплатно

    Опубликовал: Админ | Дата: 27-02-2015, 11:09 | Просмотров: 982

    Борджиа/BorgiaСоздали в: 2013
    Снималось в: Франция, Германия
    Категория жанра: историческая драма
    Время просмотра: 56 минут

    Перевод текста: Субтитры (Rosezz)
    Главный режиссёр: Оливер Хиршбигель, Метин Хусейн, Кристоф Шреве

    Актеры: Джон Доумен, Изольда Дюшаук, Арт Малик, Дяьрмуид Нойес, Марк Дэвисон, Марта Гастини, Ассумпта Серна, Стэнли Вебер, Андреа Завацки, Виктор Шефе

    Сюжет:
    Второй сезон любимого сериала франко-германского сериала про скандальное семейство Борджиа от Canal .

    Сэмпл: http://multi-up.com/907873

    Качество фильма: HDTVRip 720p
    Контейнер: MKV

    Информация о видео: AVC, 1280x720 (16:9), 25 fps, 2849 kbps, 0.124 bit/pixel
    Информация о звуке: English, MP3, 44.1 kHz, 2 ch, 128 kbps
    Субтитры: softsub (SRT)







    Список серий

    1 The Time of Sweet Desires
    2 Ash Wednesday
    3 Palm Sunday
    4 Pax Vobiscum
    5 Ascension
    6 Pentecost
    7 The Blessed Trinity
    8 A Morality Play
    9 Transfiguration
    10 The Assumption
    11 The Seven Sorrows
    12 Who Is Like God?


    MediaInfo

    Общее
    Уникальный идентификатор : 196041430917716099974037859691632182627 (0x937C34CA792076418C0153572962C563)
    Полное имя : F:Борджиа (2 сезон любимого сериала)S02E01 - The Time Of Sweet Desires.mkv
    Формат : Matroska
    Версия формата : Version 2
    Размер файла : 1,20 Гбайт
    Продолжительность : 56 м.
    Общий поток : 3038 Кбит/сек
    Дата кодирования : UTC 2013-09-28 14:25:25
    Программа кодирования : mkvmerge v5.7.0 (;The Whirlwind;) built on Jul 29 2012 15:12:35
    Библиотека кодирования : libebml v1.2.3 libmatroska v1.3.0

    Видео
    Идентификатор : 1
    Формат : AVC
    Формат/Информация : Advanced Video Codec
    Профиль формата : High@L4.1
    Параметр CABAC формата : Да
    Параметр ReFrames формата : 5 кадров
    Идентификатор кодека : V_MPEG4/ISO/AVC
    Продолжительность : 56 м.
    Битрейт : 2849 Кбит/сек
    Ширина : 1280 пикселей
    Высота : 720 пикселей
    Соотношение сторон : 16:9
    Режим частоты кадров : Постоянный
    Частота кадров : 25,000 кадров/сек
    Цветовое пространство : YUV
    Субдискретизация насыщенности : 4:2:0
    Битовая глубина : 8 бит
    Тип развёртки : Прогрессивная
    Бит/(Пиксели*Кадры) : 0.124
    Размер потока : 1,13 Гбайт (94%)
    Язык : French
    Default : Да
    Forced : Нет

    Аудио
    Идентификатор : 2
    Формат : MPEG Audio
    Версия формата : Version 1
    Профиль формата : Layer 3
    Режим : Joint stereo
    Расширение режима : MS Stereo
    Идентификатор кодека : A_MPEG/L3
    Идентификатор кодека/Подсказка : MP3
    Продолжительность : 56 м.
    Вид битрейта : Постоянный
    Битрейт : 128 Кбит/сек
    Каналы : 2 канала
    Частота : 44,1 КГц
    Метод сжатия : С потерями
    Задержка видео : 23 мс.
    Размер потока : 51,8 Мбайт (4%)
    Default : Да
    Forced : Нет

    Текст
    Идентификатор : 3
    Формат : UTF-8
    Идентификатор кодека : S_TEXT/UTF8
    Идентификатор кодека/Информация : UTF-8 Plain Text
    Default : Да
    Forced : Нет

    Скриншоты для ознакомления





    Внимание! Раздача ведётся путём добавления новых серий

    Внимание! Раздача ведётся путём добавления новых серий; при каждом добавлении создаётся новый торрент. Чтобы начать докачку новой серии, пользователям необходимо сделать следующее:
    (1) остановить скачивание,
    (2) удалить старый торрент у себя из клиента (старые серии удалять не надо),
    (3) скачать новый торрент и запустить его у себя в клиенте вместо старого, при этом указать клиенту путь в старую папку куда и должно происходить скачивание новых серий.
    Ваш клиент при этом должен произвести хеширование (проверку) старой папки (если не производит сам - помогите ему сделать это), и будет докачивать только те серии которых у вас ещё нет. Старые серии при этом не удаляются, а продолжают раздаваться!
    Eсли вы уже удалили старые серии, то предотвратить повторную закачку старых серий можно, отжав галочку в соответствующих местах при запуске нового торрента. По возможности, желательно не удалять старые серии как можно дольше чтобы релизёр не столько продолжал раздавать старые серии, а смог сконцентрироваться на новых.

    Размер скачиваемого торрента: 4.24 GB (4553600680 Bytes)

    Борджиа (ФГ) / Borgia (2013) HDTVRip 720p | Sub скачать через торрент бесплатно
    загрузка...
    Рейтинг →
     (голосов: 1, оценка 5/5, голосовать можно 1 раз )

    Другие торренты по теме:

  • Борджиа / The Borgias (2013) HDTVRip | Sub торрент скачать бесплатно
  • Борджиа (ФГ) / Borgia (2011) BDRip 720 от Torrent-Xzona | P торрент скачать бесплатно
  • Борджиа (ФГ) / Borgia (2011) BD-Remux 1080p | Домашний скачать через торрент бесплатно
  • Борджиа (ФГ) / Borgia (2011) HDRip от Generalfilm | КПК торрент скачать бесплатно
  • Борджиа (ФГ) / Borgia (2011) HDRip от Generalfilm торрент скачать бесплатно
  • Борджиа (ФГ) / Borgia (2011) BDRip | Домашний скачать через торрент бесплатно
  • Борджиа / The Borgias (2012) HDTVRip от Scarabey | LostFilm торрент скачать бесплатно
  • Борджиа / The Borgias (2013) BDRip-AVC | LostFilm скачать через торрент бесплатно


    • Комментарии (0):

      Информация

      Информация

        Посетители, находящиеся в группе Гости, не могут оставлять комментарии в данной новости.

        ↓ Меню



        ↓ Опрос

        А Вы добавили сайт в закладки?
        Да
        Не


        Top 10 за неделю (Фильмы)