.
Авторизация | Регистрация
» » Клятва молчания / An Amish Murder (2013) WEB-DLRip от BitTracker скачать через торрент бесплатно




    Клятва молчания / An Amish Murder (2013) WEB-DLRip от BitTracker скачать через торрент бесплатно

    Опубликовал: Админ | Дата: 27-02-2015, 11:09 | Просмотров: 296



    Детально о кино
    Русское название: Клятва молчания
    Русское название в мировом прокате: An Amish Murder
    Создали в: 2013
    Категория жанра: триллер, драма, детектив
    Главный режиссер: Стивен Джилленхол / Stephen Gyllenhaal
    Актеры: Нив Кэмпбелл, Кристиан Кэмпбелл, Си Томас Хауэлл, Кэти Грабстас, Жилон Вановер, Мэри Кронерт, Дуан Мюррэй, Ноам Дженкинс, Билли Маклеллан

    Сюжет фильма:
    Всё что происходит в общине амишей остаётся в общине, это дело только амишей и никого более... Именно это обстоятельство и является причиной, из-за которой Кэйт Баркхолдер, в свои восемнадцать лет, убежала из дома, покинув общину амишей. Сейчас, по прошествии многих лет, она - успешный шеф полицейского участка, и ей, как раз, предстоит разгадать запутанное дело связанное с убийством амишской девушки и вывести на чистую воду хорошо замаскированного убийцу.




    Снималось в: США
    Время просмотра: 01:24:11
    Перевод текста: Профессиональное (многоголосое) студия Elrom

    Файл
    Кодек для видео: XviD
    Качество фильма: WEB-DLRip (Исх. WEB-DL 720p)
    Информация о видео: 688x384 (1.79:1), 23.976 fps, XviD build 50 ~1098 kbps avg, 0.17 bit/pixel
    Информация о звуке: 44.100 kHz, MPEG Layer 3, 2 ch, ~128.00 kbps avg
    Субтитры: нет

    Семпл

    MediaInfo

    Общее
    Полное имя : S:ФильмыКлятва молчания. 2013. WEB-DLRip.avi
    Формат : AVI
    Формат/Информация : Audio Video Interleave
    Размер файла : 744 Мбайт
    Продолжительность : 1 ч. 24 м.
    Общий поток : 1236 Кбит/сек
    Программа кодирования : VirtualDubMod 1.5.10.3 | www.virtualdub-fr.org || (build 2550/release)
    Библиотека кодирования : VirtualDubMod build 2550/release

    Видео
    Идентификатор : 0
    Формат : MPEG-4 Visual
    Профиль формата : Advanced Simple@L5
    Параметр BVOP формата : 2
    Параметр QPel формата : Нет
    Параметр GMC формата : Без точки перехода
    Параметр матрицы формата : Default (H.263)
    Идентификатор кодека : XVID
    Идентификатор кодека/Подсказка : XviD
    Продолжительность : 1 ч. 24 м.
    Битрейт : 1098 Кбит/сек
    Ширина : 688 пикс.
    Высота : 384 пикс.
    Соотношение сторон : 16:9
    Частота кадров : 23,976 кадр/сек
    Цветовое пространство : YUV
    Подвыборка цветности : 4:2:0
    Битовая глубина : 8 бит
    Тип развёртки : Прогрессивная
    Метод сжатия : С потерями
    Бит/(Пиксели*Кадры) : 0.173
    Размер потока : 661 Мбайт (89%)
    Библиотека кодирования : XviD 1.2.1 (UTC 2008-12-04)

    Аудио
    Идентификатор : 1
    Формат : MPEG Audio
    Версия формата : Version 1
    Профиль формата : Layer 3
    Идентификатор кодека : 55
    Идентификатор кодека/Подсказка : MP3
    Продолжительность : 1 ч. 24 м.
    Вид битрейта : Постоянный
    Битрейт : 128 Кбит/сек
    Каналы : 2 канала
    Частота : 44,1 КГц
    Метод сжатия : С потерями
    Размер потока : 77,1 Мбайт (10%)
    Выравнивание : Разделение по промежуткам
    Продолжительность промежутка : 42 мс. (1,00 видеокадр)
    Время предзагрузки промежутка : 500 ms
    Библиотека кодирования : LAME3.99r
    Залил: AleksSin
    Размер скачиваемого торрента: 744.18 MB (780324864 Bytes)


    Клятва молчания / An Amish Murder (2013) WEB-DLRip от BitTracker скачать через торрент бесплатно
    загрузка...
    Рейтинг →
     (голосов: 1, оценка 3/5, голосовать можно 1 раз )

    Другие торренты по теме:

  • Клятва молчания / Sworn to Silence / An Amish Murder (2013) WEB-DL 720p от CINEMANIA | Elrom скачать через торрент бесплатно
  • Клятва молчания / Sworn to Silence / An Amish Murder (2013) WEB-DLRip | Elrom скачать через торрент бесплатно


    • Комментарии (0):

      Информация

      Информация

        Посетители, находящиеся в группе Гости, не могут оставлять комментарии в данной новости.

        ↓ Меню



        ↓ Опрос

        А Вы добавили сайт в закладки?
        Да
        Не


        Top 10 за неделю (Фильмы)