.
Авторизация | Регистрация
Хочешь лучшие торренты? Добавь свой email!
Добавить
» » Джобс: Империя соблазна / jOBS (2013) BDRip 720p | Лицензия скачать через торрент бесплатно




    Джобс: Империя соблазна / jOBS (2013) BDRip 720p | Лицензия скачать через торрент бесплатно

    Опубликовал: Админ | Дата: 27-02-2015, 11:09 | Просмотров: 497



    Детально о кино
    Русское название: Джобс: Империя соблазна
    Русское название в мировом прокате: jOBS
    Создали в: 2013
    Категория жанра: Драма, биография
    Снималось в: США, Devoted Consultants, Endgame Entertainment, Five Star Institute, If Entertainment, Open Road Films (II), Silver Reel, Venture Forth
    Главный режиссер: Джошуа Майкл Штерн
    Актеры: Эштон Кутчер, Дермот Малруни, Джош Гад, Лукас Хаас, Дж.К. Симмонс, Лесли Энн Уоррен, Рон Элдард, Ана О’Райли, Джон Гец, Джеймс Вудс

    Сюжет фильма: Он был молод, красив и чертовски талантлив. Начав с нуля, он смог построить мировую империю соблазна. О нем грезили женщины. Ему завидовали мужчины. Он соблазнил миллионы. Его звали Стив Джобс.



    Файл
    Качество фильма: BDRip (720p)
    Информация о видео: MPEG-4 AVC, 6048 Кбит/с, 1280x536
    Информация о звуке: Русский (DTS, 6 ch, 1510 Кбит/с), (AC3, 6 ch, 640 Кбит/с), английский (AC3, 2 ch, 192 Кбит/с)
    Размер скачиваемого торрента: 7.62 ГБ
    Время просмотра: 02:07:29
    Перевод текста: Дублированныйлицензия

    Семпл
    MI

    Общее
    Уникальный идентификатор : 185979783005855788570504724626552720600 (0x8BEA673F98CEF52E999C8D90A3390CD8)
    Полное имя : D:Dzhobs.Imperija.soblazna.2013.D.BDRip.720p.mkv
    Формат : Matroska
    Версия формата : Version 2
    Размер файла : 7,62 Гбайт
    Продолжительность : 2 ч. 7 м.
    Общий поток : 8559 Кбит/сек
    Дата кодирования : UTC 2013-10-31 11:38:40
    Программа кодирования : mkvmerge v6.3.0 (;You can;t stop me!;) built on Jun 28 2013 20:09:41
    Библиотека кодирования : libebml v1.3.0 libmatroska v1.4.0

    Видео
    Идентификатор : 1
    Формат : AVC
    Формат/Информация : Advanced Video Codec
    Профиль формата : High@L4.1
    Параметр CABAC формата : Да
    Параметр ReFrames формата : 9 кадров
    Идентификатор кодека : V_MPEG4/ISO/AVC
    Продолжительность : 2 ч. 7 м.
    Битрейт : 6048 Кбит/сек
    Ширина : 1280 пикселей
    Высота : 536 пикселей
    Соотношение сторон : 2,40:1
    Режим частоты кадров : Постоянный
    Частота кадров : 23,976 кадра/сек
    Цветовое пространство : YUV
    Субдискретизация насыщенности : 4:2:0
    Битовая глубина : 8 бит
    Тип развёртки : Прогрессивная
    Бит/(Пиксели*Кадры) : 0.368
    Размер потока : 5,39 Гбайт (71%)
    Библиотека кодирования : x264 core 133 r2334 a3ac64b
    Настройки программы : cabac=1 / ref=9 / deblock=1:-2:-2 / analyse=0x3:0x133 / me=umh / subme=11 / psy=1 / psy_rd=1.00:0.15 / mixed_ref=1 / me_range=32 / chroma_me=1 / trellis=2 / 8x8dct=1 / cqm=0 / deadzone=21,11 / fast_pskip=0 / chroma_qp_offset=-3 / threads=12 / lookahead_threads=3 / sliced_threads=0 / nr=0 / decimate=1 / interlaced=0 / bluray_compat=0 / constrained_intra=0 / bframes=12 / b_pyramid=2 / b_adapt=2 / b_bias=0 / direct=3 / weightb=1 / open_gop=0 / weightp=2 / keyint=240 / keyint_min=23 / scenecut=40 / intra_refresh=0 / rc_lookahead=60 / rc=crf / mbtree=0 / crf=16.9 / qcomp=0.60 / qpmin=0 / qpmax=69 / qpstep=4 / vbv_maxrate=62500 / vbv_bufsize=78125 / crf_max=0.0 / nal_hrd=none / ip_ratio=1.40 / pb_ratio=1.30 / aq=2:1.00
    Язык : English
    Default : Да
    Forced : Нет

    Аудио #1
    Идентификатор : 2
    Формат : AC-3
    Формат/Информация : Audio Coding 3
    Расширение режима : CM (complete main)
    Параметр Endianness формата : Big
    Идентификатор кодека : A_AC3
    Продолжительность : 2 ч. 7 м.
    Вид битрейта : Постоянный
    Битрейт : 640 Кбит/сек
    Каналы : 6 каналов
    Расположение каналов : Front: L C R, Side: L R, LFE
    Частота : 48,0 КГц
    Битовая глубина : 16 бит
    Метод сжатия : С потерями
    Размер потока : 584 Мбайт (7%)
    Заголовок : Dub
    Язык : Russian
    Default : Да
    Forced : Нет

    Аудио #2
    Идентификатор : 3
    Формат : DTS
    Формат/Информация : Digital Theater Systems
    Режим : 16
    Параметр Endianness формата : Big
    Идентификатор кодека : A_DTS
    Продолжительность : 2 ч. 7 м.
    Вид битрейта : Постоянный
    Битрейт : 1509 Кбит/сек
    Каналы : 6 каналов
    Расположение каналов : Front: L C R, Side: L R, LFE
    Частота : 48,0 КГц
    Битовая глубина : 24 бит
    Метод сжатия : С потерями
    Размер потока : 1,34 Гбайт (18%)
    Язык : Russian
    Default : Нет
    Forced : Нет

    Аудио #3
    Идентификатор : 4
    Формат : AC-3
    Формат/Информация : Audio Coding 3
    Расширение режима : CM (complete main)
    Параметр Endianness формата : Big
    Идентификатор кодека : A_AC3
    Продолжительность : 2 ч. 7 м.
    Вид битрейта : Постоянный
    Битрейт : 192 Кбит/сек
    Каналы : 2 канала
    Расположение каналов : Front: L R
    Частота : 48,0 КГц
    Битовая глубина : 16 бит
    Метод сжатия : С потерями
    Размер потока : 175 Мбайт (2%)
    Заголовок : Orig
    Язык : English
    Default : Нет
    Forced : Нет

    Скриншоты для ознакомления



    Размер скачиваемого торрента: 7.68 GB (8244413769 Bytes)

    Джобс: Империя соблазна / jOBS (2013) BDRip 720p | Лицензия скачать через торрент бесплатно
    загрузка...
    Рейтинг →
     (голосов: 1, оценка 3/5, голосовать можно 1 раз )

    Другие торренты по теме:

  • Джобс: Империя соблазна / jOBS (2013) WEBRip от INTERCINEMA | Звук с TS скачать бесплатно через торрент
  • Джобс: Империя соблазна / jOBS (2013) WEBRip от INTERCINEMA | Чистый звук скачать через торрент бесплатно
  • OST - Джобс: Империя соблазна / jOBS (2013) M4A
  • Джобс: Империя соблазна / jOBS (2013) BDRip 720p | Лицензия скачать через торрент бесплатно
  • Джобс: Империя соблазна / jOBS (2013) BDRemux 1080i | Лицензия скачать через торрент бесплатно
  • Джобс: Империя соблазна / jOBS (2013) Blu-Ray 1080i | Лицензия скачать через торрент бесплатно
  • Джобс: Империя соблазна / jOBS (2013) HDRip от Scarabey | Лицензия скачать через торрент бесплатно
  • Джобс: Империя соблазна / jOBS (2013) DVD5 от Youtracker | сжатый


    • Комментарии (0):

      Информация

      Информация

        Посетители, находящиеся в группе Гости, не могут оставлять комментарии в данной новости.

        ↓ Меню



        ↓ Опрос

        А Вы добавили сайт в закладки?
        Да
        Не


        Top 10 за месяц (Фильмы)