.
Авторизация | Регистрация
» » Гарри Браун / Harry Brown (2009) BDRip by msltel | P, A скачать через торрент бесплатно




    Гарри Браун / Harry Brown (2009) BDRip by msltel | P, A скачать через торрент бесплатно

    Опубликовал: Админ | Дата: 27-02-2015, 11:09 | Просмотров: 308



    Русское название: Гарри Браун
    Русское название в мировом прокате: Harry Brown
    Создали в: 2009
    Категория жанра: Триллер, драма, криминал
    Снималось в: Великобритания, Marv Films, UK Film Council, HanWay Films
    Главный режиссер: Дэниэл Барбер
    Актеры: Майкл Кейн, Эмили Мортимер, Чарли Крид-Майлз, Дэвид Брэдли (I), Иэн Глен, Шон Харрис, Бен Дрю, Джек О’Коннелл, Ямал Дауни, Ли Оакес, Джозеф Гилган, Лиам Каннингэм, Лиз Дэниелс, Марвин Кэмпбелл, Лауретта Гэвин, Радослав Каим, Клер Хэкетт, Эшли МакГуайр, Раза Джеффри, Мартин Вильде, Сиан Милн, Клариса Клэйтон, Сью Фарр, Мишель Тейт, Орла О’Рурк, Роб Хант, Гари Хоптру, Гари Коннери, Аманда Фостер, Чарльз Рамсей, Пит Форд, Энди Мерчант, Эрол Мехмет, Крис Поллард, Эми Стил, Роберт Стайлз, Энди Уэрхем, Тони Мессиа, Белинда МакГинли, Эшли Джордж, Эми Эдж, Ли Эдгар, Мартин Хиткот, Карл Родс, Лоуренс Ричардсон, Крис Уилсон

    Сюжет фильма: Он прожил свою жизнь, не боясь смотреть в лицо смерти. Но та смерть была в честном бою, с таким же противником, как и он сам. Старость изменила всё,… даже смерть, которая приходит теперь исподтишка. В парке, во дворе дома, в подземном переходе. Смерть жены и ранняя потеря дочери принесли в жизнь печаль, а зверское убийство друга ожесточило сердце. А всему виной то поколение, которое годится ему во внуки, которое кроваво и подло властвует в том маленьком мирке, где живёт Гарри Браун. Осознав, что терять больше нечего, старик Браун выходит на бой. И первой целью его становятся те, кто превращает детей в бессердечных убийц...

    Качество фильма: BDRip
    Размер скачиваемого торрента: 2.25 ГБ
    Время просмотра: 01:42:45

    Информация о видео: XviD, 1594 Кбит/с, 720x304
    Информация о звуке 1: русский, 48 kHz, AC3, 6 ch, 448 kbps avg, Профессиональный многоголосый, ВВС Спб
    Информация о звуке 2: русский, 48 kHz, AC3, 2 ch, 192 kbps avg, Авторский, Андрей Гаврилов
    Информация о звуке 3: русский, 48 kHz, AC3, 6 ch, 448 kbps avg, Авторский, Юрий Сербин

    Внешние файлы
    Информация о звуке: английский, 48 kHz, AC3, 6 ch, 448 kbps avg, Оригинал
    Субтитры: русские
    Субтитры: английские

    Исходник: ask_74 (Рутрекер)

    Сравнение с исходником



    Из отзывов...
    RomeoWhite

    Да… это про нашу жизнь

    Перед просмотром название фильма у меня вызвало ассоциации с фильмом Гран Торино. В принципе, где-то, эти два фильма похожи: тут играет в возрасте Майкл Кейн, там играет такого же примерно типа — Клинт Иствуд. Но всё же, Клинт - более харизматичный персонаж. Поэтому невольно на протяжении всего кино приходили в голову кадры из Гран Торино… А сюжет этого фильма не в новинку, довольно много снято на похожую тематику, в том числе и в нашем кинематографе, например, Ворошиловский стрелок 1998 года...
    Кино получилось довольно неплохим, держит в напряжении до конца, но не хватило оригинальности сюжета.

    7 из 10

    Кинопоиск
    MediaInfo
    Общее
    Полное имя : E:VideoGarri.Braun.2009.XviD.BDRipGarri.Braun.2009.eng.SDH.srt
    Размер файла : 137 Кбайт

    Общее
    Полное имя : E:VideoGarri.Braun.2009.XviD.BDRipGarri.Braun.2009.Original.eng.ac3
    Формат : AC-3
    Формат/Информация : Audio Coding 3
    Размер файла : 329 Мбайт
    Продолжительность : 1 ч. 42 м.
    Режим общего битрейта : Постоянный
    Общий поток : 448 Кбит/сек

    Аудио
    Формат : AC-3
    Формат/Информация : Audio Coding 3
    Расширение режима : CM (complete main)
    Параметр Endianness формата : Big
    Продолжительность : 1 ч. 42 м.
    Вид битрейта : Постоянный
    Битрейт : 448 Кбит/сек
    Каналы : 6 каналов
    Расположение каналов : Front: L C R, Side: L R, LFE
    Частота : 48,0 КГц
    Битовая глубина : 16 бит
    Метод сжатия : С потерями
    Размер потока : 329 Мбайт (100%)

    Общее
    Полное имя : E:VideoGarri.Braun.2009.XviD.BDRipGarri.Braun.2009.rus.srt
    Размер файла : 95,6 Кбайт

    Общее
    Полное имя : E:VideoGarri.Braun.2009.XviD.BDRipGarri.Braun.2009.XviD.BDRip.avi
    Формат : AVI
    Формат/Информация : Audio Video Interleave
    Размер файла : 1,93 Гбайт
    Продолжительность : 1 ч. 42 м.
    Общий поток : 2691 Кбит/сек
    Программа кодирования : VirtualDubMod 1.5.10.2 (build 2540/release)
    Библиотека кодирования : VirtualDubMod build 2540/release

    Видео
    Идентификатор : 0
    Формат : MPEG-4 Visual
    Профиль формата : Advanced Simple@L5
    Параметр BVOP формата : 1
    Параметр QPel формата : Нет
    Параметр GMC формата : Без точки перехода
    Параметр матрицы формата : Default (H.263)
    Режим смешивания : Сжатый битовый поток
    Идентификатор кодека : XVID
    Идентификатор кодека/Подсказка : XviD
    Продолжительность : 1 ч. 42 м.
    Битрейт : 1594 Кбит/сек
    Ширина : 720 пикселей
    Высота : 304 пикселя
    Соотношение сторон : 2,35:1
    Частота кадров : 23,976 кадра/сек
    Цветовое пространство : YUV
    Субдискретизация насыщенности : 4:2:0
    Битовая глубина : 8 бит
    Тип развёртки : Прогрессивная
    Метод сжатия : С потерями
    Бит/(Пиксели*Кадры) : 0.304
    Размер потока : 1,14 Гбайт (59%)
    Библиотека кодирования : XviD 1.2.1 (UTC 2008-12-04)

    Аудио #1
    Идентификатор : 1
    Формат : AC-3
    Формат/Информация : Audio Coding 3
    Расширение режима : CM (complete main)
    Параметр Endianness формата : Big
    Идентификатор кодека : 2000
    Продолжительность : 1 ч. 42 м.
    Вид битрейта : Постоянный
    Битрейт : 448 Кбит/сек
    Каналы : 6 каналов
    Расположение каналов : Front: L C R, Side: L R, LFE
    Частота : 48,0 КГц
    Битовая глубина : 16 бит
    Метод сжатия : С потерями
    Размер потока : 329 Мбайт (17%)
    Выравнивание : Разделение по промежуткам
    Продолжительность промежутка : 42 мс. (1,00 видеокадр)
    Время предзагрузки промежутка : 500 мс.

    Аудио #2
    Идентификатор : 2
    Формат : AC-3
    Формат/Информация : Audio Coding 3
    Расширение режима : CM (complete main)
    Параметр Endianness формата : Big
    Идентификатор кодека : 2000
    Продолжительность : 1 ч. 37 м.
    Вид битрейта : Постоянный
    Битрейт : 192 Кбит/сек
    Каналы : 2 канала
    Расположение каналов : Front: L R
    Частота : 48,0 КГц
    Битовая глубина : 16 бит
    Метод сжатия : С потерями
    Размер потока : 134 Мбайт (7%)
    Выравнивание : Разделение по промежуткам
    Продолжительность промежутка : 44 мс. (1,06 видеокадр)
    Время предзагрузки промежутка : 500 мс.

    Аудио #3
    Идентификатор : 3
    Формат : AC-3
    Формат/Информация : Audio Coding 3
    Расширение режима : CM (complete main)
    Параметр Endianness формата : Big
    Идентификатор кодека : 2000
    Продолжительность : 1 ч. 42 м.
    Вид битрейта : Постоянный
    Битрейт : 448 Кбит/сек
    Каналы : 6 каналов
    Расположение каналов : Front: L C R, Side: L R, LFE
    Частота : 48,0 КГц
    Битовая глубина : 16 бит
    Метод сжатия : С потерями
    Размер потока : 329 Мбайт (17%)
    Выравнивание : Разделение по промежуткам
    Продолжительность промежутка : 42 мс. (1,00 видеокадр)
    Время предзагрузки промежутка : 500 мс.
    Скриншоты для ознакомления




    Залил: msltel
    Размер скачиваемого торрента: 2.25 GB (2419482472 Bytes)

    Гарри Браун / Harry Brown (2009) BDRip by msltel | P, A скачать через торрент бесплатно
    загрузка...
    Рейтинг →
     (голосов: 1, оценка 4/5, голосовать можно 1 раз )

    Другие торренты по теме:

  • Гарри Браун / Harry Brown (2009) BDRip 1080p | P, A скачать через торрент бесплатно
  • Гарри Браун / Harry Brown (2009) HDRip от Scarabey | P скачать через торрент бесплатно
  • Гарри Браун / Harry Brown (2009) BDRip 720p by msltel | P, A торрент скачать бесплатно
  • Гарри Браун / Harry Brown (2009) BDRip 1080p by msltel | P, A скачать через торрент бесплатно


    • Комментарии (0):

      Информация

      Информация

        Посетители, находящиеся в группе Гости, не могут оставлять комментарии в данной новости.

        ↓ Меню



        ↓ Опрос

        А Вы добавили сайт в закладки?
        Да
        Не


        Top 10 за неделю (Фильмы)