.
Авторизация | Регистрация
» » Признайте меня виновным / Find Me Guilty (2006) BDRip | P скачать через торрент бесплатно




    Признайте меня виновным / Find Me Guilty (2006) BDRip | P скачать через торрент бесплатно

    Опубликовал: Админ | Дата: 27-02-2015, 11:09 | Просмотров: 317



    Детально о кино
    Русское название: Признайте меня виновным
    Русское название в мировом прокате: Find Me Guilty
    Создали в: 2006
    Категория жанра: драма, комедия, криминал, биография
    Главный режиссер: Сидни Люмет / Sidney Lumet
    Актеры: Вин Дизель, Питер Динклэйдж, Лайнас Роуч, Рон Сильвер, Аннабелла Шиорра, Алекс Рокко, Фрэнк Пьетранголаре, Ричард ДеДоменико, Джерри Грэйсон, Тони Рэй Росси

    Сюжет фильма:
    Когда полиции удается арестовать 20 членов мафиозного клана Луккези, Джеки ДиНоршио по прозвищу Толстяк Ди, уже отбывающий 30-летний тюремный срок, получает соблазнительное предложение: Джеки выйдет на волю досрочно, если даст показания против своих корешей. Но Толстяк Ди — не стукач!

    На процессе, который станет самым долгим и самым скандальным судебным разбирательством в США, он будет защищать себя сам. Вступив в непредсказуемый и рискованный поединок с властями, этот наглец и остряк доведет суд до абсурда, обратит факты против своих обвинителей и добьется самого шокирующего вердикта в истории американского правосудия!



    Снималось в: США, Германия
    Время просмотра: 02:04:30
    Перевод текста: Профессиональный (двухголосый, закадровый)

    Файл
    Кодек для видео: XviD / MP3
    Качество фильма: BDRip
    Информация о видео: 624x352 (1.77:1), 23.976 fps, XviD build 65 ~698 kbps avg, 0.13 bit/pixel
    Информация о звуке: 48 kHz, MPEG Layer 3, 2 ch, ~128.00 kbps avg

    Скриншоты для ознакомления
    MediaInfo
    Общее
    Полное имя : /Priznajte.menya.vinovnym.2006.XviD.BDRip.744mb.-All.Films.avi
    Формат : AVI
    Формат/Информация : Audio Video Interleave
    Размер файла : 745 Мбайт
    Продолжительность : 2 ч. 4 м.
    Общий поток : 836 Кбит/сек
    Название фильма : Признайте меня виновным / Я виновен / Find Me Guilty 2006
    Программа кодирования : VirtualDubMod 1.5.10.3
    Библиотека кодирования : VirtualDubMod build 2550/release

    Видео
    Идентификатор : 0
    Формат : MPEG-4 Visual
    Профиль формата : Advanced Simple@L5
    Параметр BVOP формата : 2
    Параметр QPel формата : Нет
    Параметр GMC формата : Без точки перехода
    Параметр матрицы формата : Выборочная
    Идентификатор кодека : XVID
    Идентификатор кодека/Подсказка : XviD
    Продолжительность : 2 ч. 4 м.
    Битрейт : 699 Кбит/сек
    Ширина : 624 пикселя
    Высота : 352 пикселя
    Соотношение сторон : 16:9
    Частота кадров : 23,976 кадра/сек
    Частота кадров в оригинале : 24,000 кадра/сек
    Цветовое пространство : YUV
    Субдискретизация насыщенности : 4:2:0
    Битовая глубина : 8 бит
    Тип развёртки : Прогрессивная
    Метод сжатия : С потерями
    Бит/(Пиксели*Кадры) : 0.133
    Размер потока : 622 Мбайт (84%)
    Библиотека кодирования : XviD 65

    Аудио
    Идентификатор : 1
    Формат : MPEG Audio
    Версия формата : Version 1
    Профиль формата : Layer 3
    Режим : Joint stereo
    Расширение режима : MS Stereo
    Идентификатор кодека : 55
    Идентификатор кодека/Подсказка : MP3
    Продолжительность : 2 ч. 4 м.
    Вид битрейта : Постоянный
    Битрейт : 128 Кбит/сек
    Каналы : 2 канала
    Частота : 48,0 КГц
    Метод сжатия : С потерями
    Размер потока : 114 Мбайт (15%)
    Выравнивание : Соединение по промежуткам
    Продолжительность промежутка : 42 мс. (1,00 видеокадр)
    Время предзагрузки промежутка : 504 мс.
    Заголовок : RUS - DVO
    Библиотека кодирования : LAME3.99r
    Настройки программы : -m f -V 4 -q 0 -lowpass 17 -b 128

    Размер скачиваемого торрента: 744.57 MB (780736512 Bytes)

    Признайте меня виновным / Find Me Guilty (2006) BDRip | P скачать через торрент бесплатно
    загрузка...
    Рейтинг →
     (голосов: 1, оценка 5/5, голосовать можно 1 раз )

    Другие торренты по теме:



      Комментарии (0):

      Информация

      Информация

        Посетители, находящиеся в группе Гости, не могут оставлять комментарии в данной новости.

        ↓ Меню



        ↓ Опрос

        А Вы добавили сайт в закладки?
        Да
        Не


        Top 10 за неделю (Фильмы)