.
Авторизация | Регистрация
» » Джиперс Криперс 2 / Jeepers Creepers II (2003) BDRip-AVC от MediaClub | D, P скачать через торрент бесплатно




    Джиперс Криперс 2 / Jeepers Creepers II (2003) BDRip-AVC от MediaClub | D, P скачать через торрент бесплатно

    Опубликовал: Админ | Дата: 27-02-2015, 11:09 | Просмотров: 360



    Детально о кино
    Русское название: Джиперс Криперс 2
    Русское название в мировом прокате: Jeepers Creepers II
    Создали в: 2003
    Категория жанра: Ужасы, триллер
    Главный режиссер: Виктор Сальва
    Актеры: Рей Уайз, Джонатан Брек, Гарикайи Мутамбирва, Эрик Неннингер, Никки Эйкокс, Мариэ Дельфино, Дайан Делано, Том Госсом мл., Билли Аарон Браун, Лена Кардвэлл, Аль Сантос, Трэвис Шиффнер, Касан Батчер, Джош Хэммонд, Том Тарантини, Дрю Тайлер Белл, Люк Эдвардс, Шон Флемминг, Джастин Лонг, Боб Папенбрук, Джон Пауэлл, Маршалл Кук, Джо Риган, Стефани Денис Гриффин, Николас Джордж, Филлип Карри, Эндрю Ревилль, Джил МакКинни, Джули Сопер, Даррен Робертсон, Ларго Вудрафф

    Сюжет фильма:
    Раз в 23 года зловещий крылатый и когтистый монстр пробуждается от долгого сна, чтобы 23 дня насыщаться человеческой плотью и страхом своих жертв. На исходе последний день его кошмарного пира, и сегодня древнее неведомое зло ждет богатый улов - спортивная команда и очаровательные болельщицы, возвращающиеся с триумфальной игры. Они одни в сломанном автобусе на пустынном шоссе, где не работают мобильные телефоны и неоткуда ждать помощи. На закате прожорливое исчадие ада начнет свою кровавую вакханалию. Сможет ли его добыча дожить до утра, или эта неуязвимая тварь убьет объятых ужасом тинейджеров одного за другим?



    Снималось в: США, American Zoetrope, Jeepers Creepers II LLC, Myriad Pictures Inc., United Artists
    Время просмотра: 01:44:04
    Перевод текста: Дублированный, профессиональный многоголосый

    Файл
    Кодек для видео: x264
    Качество фильма: BDRip (AVC)
    Информация о видео: MPEG-4 AVC, 2800 Кбит/с, 1024x434, 23.976 кадр/с
    Информация о звуке #1: Русский (AC3, 6 ch, 448 Кбит/с) / Дублированный
    Информация о звуке #2: Русский (AC3, 6 ch, 448 Кбит/с) / Профессиональный многоголосый
    Информация о звуке #3: Английский (AC3, 6 ch, 448 Кбит/с)
    Субтитры: Английские

    Семпл

    MI
    Format : Matroska
    Format version : Version 4 / Version 2
    File size : 3.01 GiB
    Duration : 1h 44mn
    Overall bit rate : 4 145 Kbps
    Movie name : -=MediaClub - Odessit=-
    Encoded date : UTC 2013-10-31 07:09:59
    Writing application : mkvmerge v6.2.0 (;Promised Land;) built on Apr 28 2013 12:22:01
    Writing library : libebml v1.3.0 libmatroska v1.4.0

    Video
    ID : 1
    Format : AVC
    Format/Info : Advanced Video Codec
    Format profile : High@L4.1
    Format settings, CABAC : Yes
    Format settings, ReFrames : 9 frames
    Codec ID : V_MPEG4/ISO/AVC
    Duration : 1h 44mn
    Bit rate : 2 800 Kbps
    Width : 1 024 pixels
    Height : 434 pixels
    Display aspect ratio : 2.35:1
    Frame rate : 23.976 fps
    Color space : YUV
    Chroma subsampling : 4:2:0
    Bit depth : 8 bits
    Scan type : Progressive
    Bits/(Pixel*Frame) : 0.263
    Stream size : 1.98 GiB (66%)
    Writing library : x264 core 133 r2334 a3ac64b
    Encoding settings : cabac=1 / ref=9 / deblock=1:-2:-2 / analyse=0x3:0x133 / me=umh / subme=11 / psy=1 / psy_rd=1.00:0.20 / mixed_ref=1 / me_range=48 / chroma_me=1 / trellis=2 / 8x8dct=1 / cqm=0 / deadzone=21,11 / fast_pskip=0 / chroma_qp_offset=-3 / threads=6 / lookahead_threads=1 / sliced_threads=0 / nr=0 / decimate=0 / interlaced=0 / bluray_compat=0 / constrained_intra=0 / bframes=10 / b_pyramid=2 / b_adapt=2 / b_bias=0 / direct=3 / weightb=1 / open_gop=0 / weightp=2 / keyint=240 / keyint_min=23 / scenecut=40 / intra_refresh=0 / rc=2pass / mbtree=0 / bitrate=2800 / ratetol=1.0 / qcomp=0.60 / qpmin=0 / qpmax=69 / qpstep=4 / cplxblur=20.0 / qblur=0.5 / ip_ratio=1.40 / pb_ratio=1.30 / aq=1:1.00
    Language : English

    Audio #1
    ID : 2
    Format : AC-3
    Format/Info : Audio Coding 3
    Mode extension : CM (complete main)
    Codec ID : A_AC3
    Duration : 1h 44mn
    Bit rate mode : Constant
    Bit rate : 448 Kbps
    Channel(s) : 6 channels
    Channel positions : Front: L C R, Side: L R, LFE
    Sampling rate : 48.0 KHz
    Bit depth : 16 bits
    Compression mode : Lossy
    Stream size : 333 MiB (11%)
    Title : Дублированный
    Language : Russian

    Audio #2
    ID : 3
    Format : AC-3
    Format/Info : Audio Coding 3
    Mode extension : CM (complete main)
    Codec ID : A_AC3
    Duration : 1h 44mn
    Bit rate mode : Constant
    Bit rate : 448 Kbps
    Channel(s) : 6 channels
    Channel positions : Front: L C R, Side: L R, LFE
    Sampling rate : 48.0 KHz
    Bit depth : 16 bits
    Compression mode : Lossy
    Stream size : 333 MiB (11%)
    Title : Профессиональный многоголосый
    Language : Russian

    Audio #3
    ID : 4
    Format : AC-3
    Format/Info : Audio Coding 3
    Mode extension : CM (complete main)
    Codec ID : A_AC3
    Duration : 1h 44mn
    Bit rate mode : Constant
    Bit rate : 448 Kbps
    Channel(s) : 6 channels
    Channel positions : Front: L C R, Side: L R, LFE
    Sampling rate : 48.0 KHz
    Bit depth : 16 bits
    Compression mode : Lossy
    Stream size : 333 MiB (11%)
    Language : English

    Text
    ID : 5
    Format : UTF-8
    Codec ID : S_TEXT/UTF8
    Codec ID/Info : UTF-8 Plain Text
    Language : English

    Menu
    00:00:00.000 : :Chapter 01
    00:04:57.046 : :Chapter 02
    00:06:16.167 : :Chapter 03
    00:08:02.815 : :Chapter 04
    00:12:59.570 : :Chapter 05
    00:15:24.381 : :Chapter 06
    00:18:03.582 : :Chapter 07
    00:20:42.449 : :Chapter 08
    00:23:17.020 : :Chapter 09
    00:26:26.876 : :Chapter 10
    00:28:59.988 : :Chapter 11
    00:30:46.845 : :Chapter 12
    00:32:29.197 : :Chapter 13
    00:35:43.349 : :Chapter 14
    00:39:45.841 : :Chapter 15
    00:42:34.718 : :Chapter 16
    00:45:32.396 : :Chapter 17
    00:48:45.339 : :Chapter 18
    00:50:50.630 : :Chapter 19
    00:55:25.739 : :Chapter 20
    00:57:42.834 : :Chapter 21
    01:00:07.395 : :Chapter 22
    01:05:35.431 : :Chapter 23
    01:09:30.958 : :Chapter 24
    01:11:22.945 : :Chapter 25
    01:13:01.543 : :Chapter 26
    01:16:24.871 : :Chapter 27
    01:20:44.923 : :Chapter 28
    01:24:45.246 : :Chapter 29
    01:29:41.417 : :Chapter 30
    01:33:48.748 : :Chapter 31
    01:38:02.751 : :Chapter 32
    01:44:04.029 : :Chapter 33

    Скриншоты для ознакомления


    Релиз подготовил:
    Размер скачиваемого торрента: 3.01 GB (3235049755 Bytes)

    Джиперс Криперс 2 / Jeepers Creepers II (2003) BDRip-AVC от MediaClub | D, P скачать через торрент бесплатно
    загрузка...
    Рейтинг →
     (голосов: 1, оценка 4/5, голосовать можно 1 раз )

    Другие торренты по теме:

  • Джиперс Криперс 2 / Jeepers Creepers II (2003) HDTVRip-AVC от MediaClub торрент скачать бесплатно
  • Джиперс Криперс / Jeepers Creepers (2001) HDRip-AVC | D скачать бесплатно через торрент
  • Джиперс Криперс 2 / Jeepers Creepers II (2003) HDRip от Leon-masl | P скачать через торрент бесплатно
  • Джиперс Криперс / Jeepers Creepers (2001) BDRip-AVC | D, A торрент скачать бесплатно
  • Джиперс Криперс 2 / Jeepers Creepers II (2003) BDRip 720p от MediaClub | D, P скачать через торрент бесплатно
  • Джиперс Криперс 2 / Jeepers Creepers II (2003) BDRemux | D, P скачать через торрент бесплатно
  • Джиперс Криперс 2 / Jeepers Creepers II (2003) BDRip 1080p от MediaClub | D, P скачать через торрент бесплатно
  • Джиперс Криперс 2 / Jeepers Creepers II (2003) HDRip-AVC | D торрент скачать бесплатно


    • Комментарии (0):

      Информация

      Информация

        Посетители, находящиеся в группе Гости, не могут оставлять комментарии в данной новости.

        ↓ Меню



        ↓ Опрос

        А Вы добавили сайт в закладки?
        Да
        Не


        Top 10 за неделю (Фильмы)