.
Авторизация | Регистрация
Хочешь лучшие торренты? Добавь свой email!
Добавить
» » Короли лета / The Kings of Summer (2013) HDRip от BitTracker | L1 торрент скачать бесплатно




    Короли лета / The Kings of Summer (2013) HDRip от BitTracker | L1 торрент скачать бесплатно

    Опубликовал: Админ | Дата: 27-02-2015, 11:09 | Просмотров: 336



    Детально о кино
    Русское название: Короли лета
    Русское название в мировом прокате: The Kings of Summer
    Создали в: 2013
    Категория жанра: драма, комедия
    Главный режиссер: Джордан Вогт-Робертс / Jordan Vogt-Roberts
    Актеры: Крэйг Каковски, Гэбриел Бассо, Кристоффер Картер, Нэйтан Кийес, Ник Офферман, Мойзес Ариас, Эрин Мориарти, Уильям Сонни, Ник Дж. Робинсон, Меган Маллалли

    Сюжет фильма:
    Трое друзей — подростки Джо, Патрик, а также эксцентричный и непредсказуемый Биаджо — решают сбежать из родного дома в лес, чтобы начать жизнь, не зависимую от родительского контроля. Построив самодельное жильё, ребята наконец-то ощущают себя полноправными хозяевами собственной судьбы. Так начинается их идеальное лето…




    Снималось в: США
    Время просмотра: 01:34:40
    Перевод текста: Любительское (одноголосое) datynet

    Файл
    Кодек для видео: XviD
    Качество фильма: HDRip (Исх. BDRip 720p)
    Информация о видео: 688x288 (2.39:1), 23.976 fps, XviD build 50 ~962 kbps avg, 0.20 bit/pixel
    Информация о звуке: 44.100 kHz, MPEG Layer 3, 2 ch, ~128.00 kbps avg
    Субтитры: нет

    Семпл

    MediaInfo

    Общее
    Полное имя : S:ФильмыКороли лета. 2013. HDRip (AleksSin).avi
    Формат : AVI
    Формат/Информация : Audio Video Interleave
    Размер файла : 744 Мбайт
    Продолжительность : 1 ч. 34 м.
    Общий поток : 1099 Кбит/сек
    Программа кодирования : VirtualDubMod 1.5.10.3 | www.virtualdub-fr.org || (build 2550/release)
    Библиотека кодирования : VirtualDubMod build 2550/release

    Видео
    Идентификатор : 0
    Формат : MPEG-4 Visual
    Профиль формата : Advanced Simple@L5
    Параметр BVOP формата : 2
    Параметр QPel формата : Нет
    Параметр GMC формата : Без точки перехода
    Параметр матрицы формата : Default (H.263)
    Идентификатор кодека : XVID
    Идентификатор кодека/Подсказка : XviD
    Продолжительность : 1 ч. 34 м.
    Битрейт : 962 Кбит/сек
    Ширина : 688 пикс.
    Высота : 288 пикс.
    Соотношение сторон : 2,40:1
    Частота кадров : 23,976 кадр/сек
    Цветовое пространство : YUV
    Подвыборка цветности : 4:2:0
    Битовая глубина : 8 бит
    Тип развёртки : Прогрессивная
    Метод сжатия : С потерями
    Бит/(Пиксели*Кадры) : 0.202
    Размер потока : 651 Мбайт (87%)
    Библиотека кодирования : XviD 1.2.1 (UTC 2008-12-04)

    Аудио
    Идентификатор : 1
    Формат : MPEG Audio
    Версия формата : Version 1
    Профиль формата : Layer 3
    Идентификатор кодека : 55
    Идентификатор кодека/Подсказка : MP3
    Продолжительность : 1 ч. 34 м.
    Вид битрейта : Постоянный
    Битрейт : 128 Кбит/сек
    Каналы : 2 канала
    Частота : 44,1 КГц
    Метод сжатия : С потерями
    Размер потока : 86,7 Мбайт (12%)
    Выравнивание : Разделение по промежуткам
    Продолжительность промежутка : 42 мс. (1,00 видеокадр)
    Время предзагрузки промежутка : 500 ms
    Библиотека кодирования : LAME3.99r
    Залил: AleksSin
    Размер скачиваемого торрента: 744.50 MB (780662784 Bytes)


    Короли лета / The Kings of Summer (2013) HDRip от BitTracker | L1 торрент скачать бесплатно
    загрузка...
    Рейтинг →
     (голосов: 1, оценка 5/5, голосовать можно 1 раз )

    Другие торренты по теме:

  • Короли лета / The Kings of Summer (2013) BDRip 720p от CINEMANIA | L1 скачать через торрент бесплатно
  • Короли лета / The Kings of Summer (2013) BDRip 1080p от CINEMANIA | L1 скачать через торрент бесплатно
  • Короли лета / The Kings of Summer (2013) HDRip | L1 скачать через торрент бесплатно
  • OST - Короли лета / The Kings of Summer (2013) MP3
  • Короли лета / The Kings of Summer (2013) BDRip 1080p | A
  • Короли лета / The Kings of Summer (2013) BDRip 720p | A
  • Короли лета / The Kings of Summer (2013) BDRip от Rulya74 | A
  • Короли лета / The Kings of Summer (2013) BDRip-AVC от HELLYWOOD | А


    • Комментарии (0):

      Информация

      Информация

        Посетители, находящиеся в группе Гости, не могут оставлять комментарии в данной новости.

        ↓ Меню



        ↓ Опрос

        А Вы добавили сайт в закладки?
        Да
        Не


        Top 10 за месяц (Фильмы)