.
Авторизация | Регистрация
Хочешь лучшие торренты? Добавь свой email!
Добавить
» » Полицейские / Cop Land (1997) BDRip by msltel | P, A, P1, L1 | Режиссёрская версия торрент скачать бесплатно




    Полицейские / Cop Land (1997) BDRip by msltel | P, A, P1, L1 | Режиссёрская версия торрент скачать бесплатно

    Опубликовал: Админ | Дата: 27-02-2015, 11:09 | Просмотров: 329



    Русское название: Полицейские (Режиссёрская версия)
    Русское название в мировом прокате: Cop Land (Director;s cut)
    Создали в: 1997
    Категория жанра: Триллер, драма, криминал
    Снималось в: США, Across the River Productions, Miramax Films, Woods Entertainment
    Главный режиссер: Джеймс Мэнголд
    Актеры: Сильвестр Сталлоне, Харви Кейтель, Рэй Лиотта, Роберт Де Ниро, Питер Берг, Джанин Гарофало, Роберт Патрик, Майкл Рапапорт, Аннабелла Шиорра, Ноа Эммерик, Иди Фалко

    Сюжет фильма: Фредди Хефлин с детства восхищался полицейскими. Он так и не смог стать полицейским из-за частичной глухоты. Однако, благодаря своему покладистому и открытому характеру, он становится шерифом в пригороде штата Нью-Джерси под Нью-Йорком и живёт в городке, в основном населённом его коллегами из городской полиции Нью-Йорка. Нити расследования дел мафиозных копов приводят Мо Тилдена, следователя из отдела внутренней безопасности, в городок и к шерифу Фредди Хефлину. Хефлин начинает помогать Тилдену и вскоре обнаруживает, что его герои могут оказаться не столь непогрешимыми.

    Качество фильма: BDRip
    Размер скачиваемого торрента: 3.69 ГБ
    Время просмотра: 01:56:18

    Информация о видео: XviD, 1904 Kбит/с, 720х384
    Информация о звуке: русский, 48 kHz, AC3, 6 ch, 448 kbps avg, Профессиональный многоголосый (с добавлением Андрея Гаврилова)

    Внешние файлы
    Информация о звуке: русский, 48 kHz, AC3, 6 ch, 448 kbps avg, Авторский, Андрей Гаврилов
    Информация о звуке: русский, 48 kHz, AC3, 6 ch, 448 kbps avg, Авторский, Юрий Живов (с добавлением Андрея Гаврилова)
    Информация о звуке: русский, 48 kHz, AC3, 6 ch, 448 kbps avg, Профессиональный одноголосый, Михаил Чадов по переводу Евгения Гаевского (с ненормативной лексикой)
    Информация о звуке: русский, 48 kHz, AC3, 6 ch, 384 kbps avg, Любительский одноголосый, den904 по переводу Евгения Гаевского (с ненормативной лексикой)
    Информация о звуке: английский, 48 kHz, AC3, 6 ch, 448 kbps avg, Оригинал
    Субтитры: русские (Евгений Гаевский, с ненормативной лексикой)
    Субтитры: английские

    Исходник: Ambulacetus (HDTracker)

    Сравнение с исходником



    Из отзывов...
    ProActor

    Полицейские — пример отличной криминальной драмы, в которой не важен совсем скромный бюджет и редкие экшн-сцены. Создатели каким-то образом умудрились наделить кино неповторимой атмосферой спокойствия и неспешности повествования, при том что Полицейские - ни разу не скучный или занудный фильм. Такие фильмы просто приятно посмотреть, поначалу даже не вдаваясь в детали истории. А здесь перед нами качественный рассказ о человеке, который ради справедливости не посмотрит на мнение большинства и собственноручно добьется её во что бы то ни стало...

    Кинопоиск
    MediaInfo
    Общее
    Полное имя : E:VideoPolicejskie.DirCut.1997.XviD.BDRipPolicejskie.DirCut.1997.AVO.rus.А.Гаврилов.ac3
    Формат : AC-3
    Формат/Информация : Audio Coding 3
    Размер файла : 373 Мбайт
    Продолжительность : 1 ч. 56 м.
    Режим общего битрейта : Постоянный
    Общий поток : 448 Кбит/сек

    Аудио
    Формат : AC-3
    Формат/Информация : Audio Coding 3
    Расширение режима : CM (complete main)
    Параметр Endianness формата : Big
    Продолжительность : 1 ч. 56 м.
    Вид битрейта : Постоянный
    Битрейт : 448 Кбит/сек
    Каналы : 6 каналов
    Расположение каналов : Front: L C R, Side: L R, LFE
    Частота : 48,0 КГц
    Битовая глубина : 16 бит
    Метод сжатия : С потерями
    Размер потока : 373 Мбайт (100%)

    Общее
    Полное имя : E:VideoPolicejskie.DirCut.1997.XviD.BDRipPolicejskie.DirCut.1997.AVO.rus.Ю.Живов А.Гаврилов.ac3
    Формат : AC-3
    Формат/Информация : Audio Coding 3
    Размер файла : 373 Мбайт
    Продолжительность : 1 ч. 56 м.
    Режим общего битрейта : Постоянный
    Общий поток : 448 Кбит/сек

    Аудио
    Формат : AC-3
    Формат/Информация : Audio Coding 3
    Расширение режима : CM (complete main)
    Параметр Endianness формата : Big
    Продолжительность : 1 ч. 56 м.
    Вид битрейта : Постоянный
    Битрейт : 448 Кбит/сек
    Каналы : 6 каналов
    Расположение каналов : Front: L C R, Side: L R, LFE
    Частота : 48,0 КГц
    Битовая глубина : 16 бит
    Метод сжатия : С потерями
    Размер потока : 373 Мбайт (100%)

    Общее
    Полное имя : E:VideoPolicejskie.DirCut.1997.XviD.BDRipPolicejskie.DirCut.1997.eng.srt
    Размер файла : 190 Кбайт

    Общее
    Полное имя : E:VideoPolicejskie.DirCut.1997.XviD.BDRipPolicejskie.DirCut.1997.Original.eng.ac3
    Формат : AC-3
    Формат/Информация : Audio Coding 3
    Размер файла : 373 Мбайт
    Продолжительность : 1 ч. 56 м.
    Режим общего битрейта : Постоянный
    Общий поток : 448 Кбит/сек

    Аудио
    Формат : AC-3
    Формат/Информация : Audio Coding 3
    Расширение режима : CM (complete main)
    Параметр Endianness формата : Big
    Продолжительность : 1 ч. 56 м.
    Вид битрейта : Постоянный
    Битрейт : 448 Кбит/сек
    Каналы : 6 каналов
    Расположение каналов : Front: L C R, Side: L R, LFE
    Частота : 48,0 КГц
    Битовая глубина : 16 бит
    Метод сжатия : С потерями
    Размер потока : 373 Мбайт (100%)

    Общее
    Полное имя : E:VideoPolicejskie.DirCut.1997.XviD.BDRipPolicejskie.DirCut.1997.rus.Е.Гаевский, с матами.srt
    Формат : SubRip
    Размер файла : 125 Кбайт

    Текст
    Формат : SubRip
    Метод сжатия : Без потерь

    Общее
    Полное имя : E:VideoPolicejskie.DirCut.1997.XviD.BDRipPolicejskie.DirCut.1997.VO.rus.den904 по переводу Е.Гаевского, с матами.ac3
    Формат : AC-3
    Формат/Информация : Audio Coding 3
    Размер файла : 319 Мбайт
    Продолжительность : 1 ч. 56 м.
    Режим общего битрейта : Постоянный
    Общий поток : 384 Кбит/сек

    Аудио
    Формат : AC-3
    Формат/Информация : Audio Coding 3
    Расширение режима : CM (complete main)
    Параметр Endianness формата : Big
    Продолжительность : 1 ч. 56 м.
    Вид битрейта : Постоянный
    Битрейт : 384 Кбит/сек
    Каналы : 6 каналов
    Расположение каналов : Front: L C R, Side: L R, LFE
    Частота : 48,0 КГц
    Битовая глубина : 16 бит
    Метод сжатия : С потерями
    Размер потока : 319 Мбайт (100%)

    Общее
    Полное имя : E:VideoPolicejskie.DirCut.1997.XviD.BDRipPolicejskie.DirCut.1997.VO.rus.М.Чадов по переводу Е.Гаевского, с матами.ac3
    Формат : AC-3
    Формат/Информация : Audio Coding 3
    Размер файла : 373 Мбайт
    Продолжительность : 1 ч. 56 м.
    Режим общего битрейта : Постоянный
    Общий поток : 448 Кбит/сек

    Аудио
    Формат : AC-3
    Формат/Информация : Audio Coding 3
    Расширение режима : CM (complete main)
    Параметр Endianness формата : Big
    Продолжительность : 1 ч. 56 м.
    Вид битрейта : Постоянный
    Битрейт : 448 Кбит/сек
    Каналы : 6 каналов
    Расположение каналов : Front: L C R, Side: L R, LFE
    Частота : 48,0 КГц
    Битовая глубина : 16 бит
    Метод сжатия : С потерями
    Размер потока : 373 Мбайт (100%)

    Общее
    Полное имя : E:VideoPolicejskie.DirCut.1997.XviD.BDRipPolicejskie.DirCut.1997.XviD.BDRip.avi
    Формат : AVI
    Формат/Информация : Audio Video Interleave
    Размер файла : 1,92 Гбайт
    Продолжительность : 1 ч. 56 м.
    Общий поток : 2361 Кбит/сек
    Программа кодирования : VirtualDubMod 1.5.10.2 (build 2540/release)
    Библиотека кодирования : VirtualDubMod build 2540/release

    Видео
    Идентификатор : 0
    Формат : MPEG-4 Visual
    Профиль формата : Advanced Simple@L5
    Параметр BVOP формата : 1
    Параметр QPel формата : Нет
    Параметр GMC формата : Без точки перехода
    Параметр матрицы формата : Default (H.263)
    Режим смешивания : Сжатый битовый поток
    Идентификатор кодека : XVID
    Идентификатор кодека/Подсказка : XviD
    Продолжительность : 1 ч. 56 м.
    Битрейт : 1904 Кбит/сек
    Ширина : 720 пикселей
    Высота : 384 пикселя
    Соотношение сторон : 1,85:1
    Частота кадров : 23,976 кадра/сек
    Цветовое пространство : YUV
    Субдискретизация насыщенности : 4:2:0
    Битовая глубина : 8 бит
    Тип развёртки : Прогрессивная
    Метод сжатия : С потерями
    Бит/(Пиксели*Кадры) : 0.287
    Размер потока : 1,55 Гбайт (81%)
    Библиотека кодирования : XviD 1.2.1 (UTC 2008-12-04)

    Аудио
    Идентификатор : 1
    Формат : AC-3
    Формат/Информация : Audio Coding 3
    Расширение режима : CM (complete main)
    Параметр Endianness формата : Big
    Идентификатор кодека : 2000
    Продолжительность : 1 ч. 56 м.
    Вид битрейта : Постоянный
    Битрейт : 448 Кбит/сек
    Каналы : 6 каналов
    Расположение каналов : Front: L C R, Side: L R, LFE
    Частота : 48,0 КГц
    Битовая глубина : 16 бит
    Метод сжатия : С потерями
    Размер потока : 373 Мбайт (19%)
    Выравнивание : Разделение по промежуткам
    Продолжительность промежутка : 42 мс. (1,00 видеокадр)
    Время предзагрузки промежутка : 500 мс.
    Скриншоты для ознакомления




    Залил: msltel
    Размер скачиваемого торрента: 3.69 GB (3957692205 Bytes)

    Полицейские / Cop Land (1997) BDRip by msltel | P, A, P1, L1 | Режиссёрская версия торрент скачать бесплатно
    загрузка...
    Рейтинг →
     (голосов: 1, оценка 3/5, голосовать можно 1 раз )

    Другие торренты по теме:

  • Бруклинские полицейские / Brooklyns Finest (2009) BDRip 720p от leonardo 59 Scarabey
  • Полицейские / Полицейский городок / Cop Land (1997) НDRip от Scarabey | Р
  • Полицейские / Cop Land (1997) BDRip 720p by msltel | P, A, P1, L1 | Режиссёрская версия
  • Полицейские / Cop Land (1997) BDRip 1080p by msltel | P, A, P1, L1 | Режиссёрская версия скачать через торрент бесплатно
  • Бруклинские полицейские / Brooklyns Finest (2009) HDRip от Scarabey скачать через торрент бесплатно
  • Бруклинские полицейские / Brooklyns Finest (2009) BDRip от HQ-ViDEO скачать через торрент бесплатно
  • Бруклинские полицейские / Brooklyns Finest (2009) DVDRip | A | Open Matte
  • Полицейские / Cop Land (1997) HDRip | Гаврилов | Directors cut


    • Комментарии (0):

      Информация

      Информация

        Посетители, находящиеся в группе Гости, не могут оставлять комментарии в данной новости.

        ↓ Меню



        ↓ Опрос

        А Вы добавили сайт в закладки?
        Да
        Не


        Top 10 за месяц (Фильмы)