.
Авторизация | Регистрация
Хочешь лучшие торренты? Добавь свой email!
Добавить
» » Поездка в Америку / Coming to America (1988) ВDRip от Youtracker торрент скачать бесплатно




    Поездка в Америку / Coming to America (1988) ВDRip от Youtracker торрент скачать бесплатно

    Опубликовал: Админ | Дата: 27-02-2015, 11:09 | Просмотров: 334


    Снималось в: США
    Создали в: Eddie Murphy Productions, Paramount Pictures
    Категория жанра: драма, мелодрама, комедия
    Создали в: 1988
    Время просмотра: 01:56:47

    Перевод текста: Профессиональный (Многоголосый, закадровый)
    Оригинальная аудиодорожка: нет
    Субтитры подготовлены: нет

    Главный режиссер: Джон Лэндис / John Landis

    Актеры:
    Эдди Мёрфи, Арсенио Холл, Джеймс Эрл Джонс, Джон Эймос, Мэдж Синклер, Шэри Хидли, Пол Бейтс, Эрик Ла Салль, Фрэнки Фэйзон, Ванесса Белл Кэллоуэй...

    Сюжет:
    Наследный принц африканского государства Замунда Аким (Эдди Мерфи) хочет сам себе найти жену и едет для этого в Америку в компании своего верного друга и слуги Сэмми (Арсенио Холл). В Нью-Йорке принц выбирает самый шикарный по названию, но далеко не самый фешенебельный район Куинс (королевы). Поиски невесты заставили принца играть роль обычного работяги-парня и поступить работать в закусочную, в которой ему очень понравилась дочь хозяина. Девушка и не подозревает, кем в действительности является её скромный ухажер-козопас, что она уже потенциальная принцесса!…




    Исходник: BDRemux 1080p
    Тип релиза: BDRip
    Контейнер: AVI

    Информация о видео: 624x352 (16:9), 23.976 fps, XviD ~ 760 kbps avg, 0.144 bit/pixel
    Информация о звуке: 48 kHz, MP3 2.0, 128 kbps

    Раздача от:
    MediaInfo

    Общее
    Полное имя : Poezdka.v.Ameriku.1988.BDRip-745_Youtracker_by_AVP Studio.avi
    Формат : AVI
    Формат/Информация : Audio Video Interleave
    Размер файла : 750 Мбайт
    Продолжительность : 1 ч. 56 м.
    Общий поток : 897 Кбит/сек
    Программа кодирования : VirtualDubModRus 1.5.10.2 (build 2542/release)
    Библиотека кодирования : VirtualDubMod build 2542/release

    Видео
    Идентификатор : 0
    Формат : MPEG-4 Visual
    Профиль формата : Advanced Simple@L5
    Параметр BVOP формата : 1
    Параметр QPel формата : Нет
    Параметр GMC формата : Без точки перехода
    Параметр матрицы формата : Выборочная
    Идентификатор кодека : XVID
    Идентификатор кодека/Подсказка : XviD
    Продолжительность : 1 ч. 56 м.
    Битрейт : 760 Кбит/сек
    Ширина : 624 пикселя
    Высота : 352 пикселя
    Соотношение сторон : 16:9
    Частота кадров : 23,976 кадра/сек
    Цветовое пространство : YUV
    Субдискретизация насыщенности : 4:2:0
    Битовая глубина : 8 бит
    Тип развёртки : Прогрессивная
    Метод сжатия : С потерями
    Бит/(Пиксели*Кадры) : 0.144
    Размер потока : 635 Мбайт (85%)
    Библиотека кодирования : XviD 73

    Аудио
    Идентификатор : 1
    Формат : MPEG Audio
    Версия формата : Version 1
    Профиль формата : Layer 3
    Идентификатор кодека : 55
    Идентификатор кодека/Подсказка : MP3
    Продолжительность : 1 ч. 56 м.
    Вид битрейта : Постоянный
    Битрейт : 128 Кбит/сек
    Каналы : 2 канала
    Частота : 48,0 КГц
    Метод сжатия : С потерями
    Размер потока : 107 Мбайт (14%)
    Выравнивание : Соединение по промежуткам
    Продолжительность промежутка : 42 мс. (1,00 видеокадр)
    Время предзагрузки промежутка : 504 мс.
    Библиотека кодирования : LAME3.99r
    Залил: AVPStudio
    Размер скачиваемого торрента: 746.10 MB (782340096 Bytes)


    Поездка в Америку / Coming to America (1988) ВDRip от Youtracker торрент скачать бесплатно
    загрузка...
    Рейтинг →
     (голосов: 1, оценка 4/5, голосовать можно 1 раз )

    Другие торренты по теме:

  • Поездка в Америку / Coming to America (1988) DVD9 от Youtracker | P | Лицензия
  • Попутчики / Поездка в прошлое / Forever Lulu (2000) BDRip от MediaClub | P
  • Попутчики / Поездка в прошлое / Forever Lulu (2000) BDRip 720p от MediaClub
  • Поездка в Америку / Coming to America (1988) ВDRip-AVC от Youtracker
  • Поездка в Америку / Coming to America (1988) ВDRip от New-team скачать через торрент бесплатно
  • Поездка в Америку / Coming To America (1988) HDDVDRip 1080p скачать через торрент бесплатно
  • Поездка в Америку / Coming To America (1988) BDRip от HQCLUB
  • Поездка в Америку / Coming to America (1988) BDRip-AVC от Leonardo and Scarabey


    • Комментарии (0):

      Информация

      Информация

        Посетители, находящиеся в группе Гости, не могут оставлять комментарии в данной новости.

        ↓ Меню



        ↓ Опрос

        А Вы добавили сайт в закладки?
        Да
        Не


        Top 10 за месяц (Фильмы)