.
Авторизация | Регистрация
Хочешь лучшие торренты? Добавь свой email!
Добавить
» » Инспектор Джордж Джентли / Inspector George Gently (2007-2012) BDRip от DeathN2 торрент скачать бесплатно




    Инспектор Джордж Джентли / Inspector George Gently (2007-2012) BDRip от DeathN2 торрент скачать бесплатно

    Опубликовал: Админ | Дата: 27-02-2015, 11:09 | Просмотров: 1010



    Детально о кино
    Русское название: Инспектор Джордж Джентли
    Русское название в мировом прокате: Inspector George Gently
    Создали в: 2007-2012
    Категория жанра: драма, криминал, детектив
    Главный режиссер: Киаран Доннели, Дэниэль О;Хара, Джайлз Маккинон, Николас Рентон
    Актеры: Мартин Шоу, Ли Инглби, Саймон Хаббард, Том Хатч, Тони Рор, Мелани Кларк Пуллен, Lisa Mcgrillis, Тим Дэнн, Кэти Андерсон, Крис Брэйлсфорд

    Сюжет фильма:
    Старший инспектор Скотланд-Ярда Джордж Джентли, ветеран Второй мировой войны, известен своей борьбой против бандитизма и коррупции. После того как его жена Изабелла была убита отъявленным гангстером Джо Вебстером, Джентли решил уйти на пенсию. Но когда он услышал об убийстве в Нортумберленде, по стилю похожем на дело рук Вебстера, инспектор решил повременить с отставкой ради расследования этого последнего дела.

    В паре с местным детективом Джоном Бахусом он выслеживает Вебстера, в то же время пытаясь удержать молодого и амбициозного напарника от неверных поступков. В итоге этого расследования Джордж Джентли решает продолжить службу, возглавив полицейский департамент уголовного розыска в графствах Нортумберленд и Дарем. Хроника событий с первого по пятый сезон любимого сериала затрагивает 1964—1968 годы.
    Список серий

    Сезон 1.
    00: Gently Go Man
    01: The Burning Man / Сгоревший человек
    03: Bomber;s Moon / Луна бомбардировщика

    Сезон 2.
    01: Gently with the Innocents / Джентли и невиновные
    02: Gently in the Night / Джентли в ночи
    03: Gently in the Blood / Джентли на крови
    04: Gently Through the Mill / Происшествие на мельнице

    Сезон 3.
    01: Gently Evil / Семя зла
    02: Peace Love / Мир и любовь

    Сезон 4.
    01: Gently Upside Down / Вверх тормашками
    02: Goodbye China / Прощай Чайна

    Сезон 5.
    01: Gently Northern Soul / Джентли и Северный Соул
    02: Gently with Class / Джентли и аристократия
    03: The Lost Child / Потерянный ребенок
    04: Gently in the Cathedral / Джентли в соборе



    Снималось в: Великобритания
    Время просмотра: 15 x ~ 01:30:00
    Перевод текста: Профессиональный (многоголосый закадровый) студия Позитив, 100ТВ

    Файл
    Кодек для видео: XviD
    Качество фильма: BDRip
    Информация о видео: 704x400, 23.976 fps, ~ 2000 kbps, 0.23 bit/pixel
    Информация о звуке:
    Аудио Rus: AC3, 48 kHz, 2 ch, ~192.00 kbps avg | студия Позитив, 100ТВ
    Аудио Eng: AC3, 48 kHz, 2 ch, ~192.00 kbps avg |Original|

    Релиз подготовил:

    Скрытый текст
    За исходные диски спасибо HDCLUB и psicho, lawyers, Кириллка, Vadkhub.
    Русский звук взят с тв трансляции канала 100ТВ, спасибо Beer kolesik Drinkers, HPotter, Lexa1988-L1.


    MI

    Общее
    Полное имя : Inspector George Gently (2007-2012) Season 1-5Inspector.George.Gently.S04.E01.Gently.Upside.Down.2011.BDRip.avi
    Формат : AVI
    Формат/Информация : Audio Video Interleave
    Размер файла : 1,45 Гбайт
    Продолжительность : 1 ч. 29 м.
    Общий поток : 2330 Кбит/сек
    Программа кодирования : VirtualDubMod 1.5.10.2 (build 2540/release)
    Библиотека кодирования : VirtualDubMod build 2540/release

    Видео
    Идентификатор : 0
    Формат : MPEG-4 Visual
    Профиль формата : Advanced Simple@L5
    Параметр BVOP формата : 1
    Параметр QPel формата : Нет
    Параметр GMC формата : Без точки перехода
    Параметр матрицы формата : Default (MPEG)
    Идентификатор кодека : XVID
    Идентификатор кодека/Подсказка : XviD
    Продолжительность : 1 ч. 29 м.
    Битрейт : 1928 Кбит/сек
    Ширина : 704 пикселя
    Высота : 400 пикселей
    Соотношение сторон : 16:9
    Частота кадров : 29,970 кадров/сек
    Цветовое пространство : YUV
    Субдискретизация насыщенности : 4:2:0
    Битовая глубина : 8 бит
    Тип развёртки : Прогрессивная
    Метод сжатия : С потерями
    Бит/(Пиксели*Кадры) : 0.228
    Размер потока : 1,20 Гбайт (83%)
    Библиотека кодирования : XviD 1.2.1 (UTC 2008-12-04)

    Аудио #1
    Идентификатор : 1
    Формат : AC-3
    Формат/Информация : Audio Coding 3
    Расширение режима : CM (complete main)
    Параметр Endianness формата : Big
    Идентификатор кодека : 2000
    Продолжительность : 1 ч. 29 м.
    Вид битрейта : Постоянный
    Битрейт : 192 Кбит/сек
    Каналы : 2 канала
    Расположение каналов : Front: L R
    Частота : 48,0 КГц
    Битовая глубина : 16 бит
    Метод сжатия : С потерями
    Размер потока : 122 Мбайт (8%)
    Выравнивание : Разделение по промежуткам
    Продолжительность промежутка : 33 мс. (1,00 видеокадр)
    Время предзагрузки промежутка : 500 мс.

    Аудио #2
    Идентификатор : 2
    Формат : AC-3
    Формат/Информация : Audio Coding 3
    Расширение режима : CM (complete main)
    Параметр Endianness формата : Big
    Идентификатор кодека : 2000
    Продолжительность : 1 ч. 29 м.
    Вид битрейта : Постоянный
    Битрейт : 192 Кбит/сек
    Каналы : 2 канала
    Расположение каналов : Front: L R
    Частота : 48,0 КГц
    Битовая глубина : 16 бит
    Метод сжатия : С потерями
    Размер потока : 122 Мбайт (8%)
    Выравнивание : Разделение по промежуткам
    Продолжительность промежутка : 33 мс. (1,00 видеокадр)
    Время предзагрузки промежутка : 500 мс.


    Скриншоты для ознакомления

    Сезон 1.


    Сезон 2.


    Сезон 3.


    Сезон 4.


    Сезон 5.



    Размер скачиваемого торрента: 21.83 GB (23435229184 Bytes)

    Инспектор Джордж Джентли / Inspector George Gently (2007-2012) BDRip от DeathN2 торрент скачать бесплатно
    загрузка...
    Рейтинг →
     (голосов: 1, оценка 3/5, голосовать можно 1 раз )

    Другие торренты по теме:



      Комментарии (0):

      Информация

      Информация

        Посетители, находящиеся в группе Гости, не могут оставлять комментарии в данной новости.

        ↓ Меню



        ↓ Опрос

        А Вы добавили сайт в закладки?
        Да
        Не


        Top 10 за месяц (Фильмы)