.
Авторизация | Регистрация
Хочешь лучшие торренты? Добавь свой email!
Добавить
» » Смерть со спецэффектами / Чудик / Freaky Deaky (2012) HDRip от BitTracker | L1 скачать через торрент бесплатно




    Смерть со спецэффектами / Чудик / Freaky Deaky (2012) HDRip от BitTracker | L1 скачать через торрент бесплатно

    Опубликовал: Админ | Дата: 27-02-2015, 11:09 | Просмотров: 316



    Детально о кино
    Русское название: Смерть со спецэффектами / Чудик
    Русское название в мировом прокате: Freaky Deaky
    Создали в: 2012
    Категория жанра: триллер, криминал, комедия
    Главный режиссер: Чарльз Мэттоу / Charles Mettou
    Актеры: Кристиан Слэйтер, Криспин Гловер, Майкл Джей Уайт, Билли Бурк, Энди Дик, Билл Дьюк, Роджер Барт, Марк Сауль, Глория Хендри, Сабина Гадеки

    Сюжет фильма:
    Бывшему полицейскому подрывнику Бобу Сквэду вновь приходится вспомнить, что сапер ошибается лишь раз. Разбирая дело женщины, обвинившей в изнасиловании некоего богача, он сам попадает в опасный переплет. У подозреваемого еще со времен бурной юности, проведенной в колледже, имеются два закадычных друга. Эти серьезные парни задались целью убить Боба.




    Снималось в: США
    Киностудия: Matthau Company, The, Final Cut Productions
    Время просмотра: 01:33:14
    Перевод текста: Любительское (одноголосное) Артем Белоконский

    Файл
    Кодек для видео: XviD
    Качество фильма: HDRip (Исх. BDRip 1080p)
    Информация о видео: 720x400 (1.80:1), 23.976 fps, XviD build 50 ~1842 kbps avg, 0.27 bit/pixel
    Информация о звуке: 48 kHz, AC3 Dolby Digital, 3/2 (L,C,R,l,r) LFE ch, ~384.00 kbps avg
    Субтитры: нет

    Семпл

    MediaInfo

    Общее
    Полное имя : S:ФильмыСмерть со спецэффектами. 2012. HDRip. 1.45 (AleksSin).avi
    Формат : AVI
    Формат/Информация : Audio Video Interleave
    Размер файла : 1,46 Гбайт
    Продолжительность : 1 ч. 33 м.
    Общий поток : 2235 Кбит/сек
    Программа кодирования : VirtualDubMod 1.5.10.3 | www.virtualdub-fr.org || (build 2550/release)
    Библиотека кодирования : VirtualDubMod build 2550/release

    Видео
    Идентификатор : 0
    Формат : MPEG-4 Visual
    Профиль формата : Advanced Simple@L5
    Параметр BVOP формата : 2
    Параметр QPel формата : Нет
    Параметр GMC формата : Без точки перехода
    Параметр матрицы формата : Default (H.263)
    Идентификатор кодека : XVID
    Идентификатор кодека/Подсказка : XviD
    Продолжительность : 1 ч. 33 м.
    Битрейт : 1842 Кбит/сек
    Ширина : 720 пикс.
    Высота : 400 пикс.
    Соотношение сторон : 16:9
    Частота кадров : 23,976 кадр/сек
    Цветовое пространство : YUV
    Подвыборка цветности : 4:2:0
    Битовая глубина : 8 бит
    Тип развёртки : Прогрессивная
    Метод сжатия : С потерями
    Бит/(Пиксели*Кадры) : 0.267
    Размер потока : 1,20 Гбайт (82%)
    Библиотека кодирования : XviD 1.2.1 (UTC 2008-12-04)

    Аудио
    Идентификатор : 1
    Формат : AC-3
    Формат/Информация : Audio Coding 3
    Расширение режима : CM (complete main)
    Идентификатор кодека : 2000
    Продолжительность : 1 ч. 33 м.
    Вид битрейта : Постоянный
    Битрейт : 384 Кбит/сек
    Каналы : 6 каналов
    Расположение каналов : Front: L C R, Side: L R, LFE
    Частота : 48,0 КГц
    Битовая глубина : 16 бит
    Метод сжатия : С потерями
    Размер потока : 256 Мбайт (17%)
    Выравнивание : Разделение по промежуткам
    Продолжительность промежутка : 42 мс. (1,00 видеокадр)
    Время предзагрузки промежутка : 500 ms

    Скриншоты для ознакомления


    Релиз подготовил:
    Залил: AleksSin
    Размер скачиваемого торрента: 1.46 GB (1563230208 Bytes)

    Смерть со спецэффектами / Чудик / Freaky Deaky (2012) HDRip от BitTracker | L1 скачать через торрент бесплатно
    загрузка...
    Рейтинг →
     (голосов: 1, оценка 5/5, голосовать можно 1 раз )

    Другие торренты по теме:

  • Смерть со спецэффектами / Freaky Deaky (2012) WEB-DL 720p | L1
  • Смерть со спецэффектами / Freaky Deaky (2012) BDRip 1080p от CINEMANIA | L1
  • Смерть со спецэффектами / Freaky Deaky (2012) BDRip 720p от CINEMANIA | L1 скачать через торрент бесплатно
  • Смерть со спецэффектами / Freaky Deaky (2012) HDRip | Лицензия скачать через торрент бесплатно
  • Смерть со спецэффектами / Freaky Deaky (2012) BDRip 1080p от CINEMANIA | P, P2, L1
  • Смерть со спецэффектами / Freaky Deaky (2012) BDRip 720p от CINEMANIA | P, P2, L1
  • Смерть со спецэффектами / Freaky Deaky (2012) HDRip-AVC от New-Team | P | Лицензия


    • Комментарии (0):

      Информация

      Информация

        Посетители, находящиеся в группе Гости, не могут оставлять комментарии в данной новости.

        ↓ Меню



        ↓ Опрос

        А Вы добавили сайт в закладки?
        Да
        Не


        Top 10 за месяц (Фильмы)