.
Авторизация | Регистрация
» » Звонок 2 / Ringu 2 (1999) BDRip 1080p by msltel | A торрент скачать бесплатно




    Звонок 2 / Ringu 2 (1999) BDRip 1080p by msltel | A торрент скачать бесплатно

    Опубликовал: Админ | Дата: 27-02-2015, 11:09 | Просмотров: 383



    Русское название: Звонок 2
    Русское название в мировом прокате: Ringu 2
    Создали в: 1999
    Категория жанра: Ужасы
    Снималось в: Япония, Oz Productions, Asmik Ace Entertainment, Kadokawa Shoten Publishing Co.
    Главный режиссер: Хидео Наката
    Актеры: Мики Накатани, Хитоми Сато, Кёко Фукада, Фумиё Кохината, Кендзиро Ишимару, Юрэй Янаги, Рикия Отака, Ёити Нумата, Масако, Мивако Кадзи

    Сюжет фильма: Смертоносная плёнка снова затягивает в свои сети доверчивых людей. Зловещий призрак из телевизора, Садако Имамура, возвращается! Перед вами продолжение мегахита японского кинопроката Звонок, одной из самых страшных кинокартин всех времён. На этот раз главным персонажем становится девушка погибшего в первой части репортёра. Она пытается выйти на след того, что стоит за не слишком дружелюбной видеоплёнкой.

    Качество фильма: BDRip 1080p
    Размер скачиваемого торрента: 10.63 ГБ
    Время просмотра: 01:35:17

    Информация о видео: MPEG-4 AVC, 9887 Kбит/с, 1920x1036
    Информация о звуке 1: русский, 48 kHz, AC3, 6 ch, 384 kbps avg, Авторский, Андрей Гаврилов
    Информация о звуке 2: русский, 48 kHz, DTS, 6 ch, 1509 kbps avg, Авторский, Сергей Кузнецов
    Информация о звуке 3: русский, 48 kHz, DTS, 6 ch, 1509 kbps avg, Авторский, Юрий Сербин

    Внешние файлы
    Информация о звуке: русский, 48 kHz, AC3, 6 ch, 448 kbps avg, Авторский, Сергей Кузнецов
    Информация о звуке: русский, 48 kHz, AC3, 6 ch, 448 kbps avg, Авторский, Юрий Сербин
    Информация о звуке: английский, 48 kHz, DTS, 6 ch, 1509 kbps avg, Оригинал
    Субтитры: русские
    Субтитры: английские

    Исходник: Ванчело (Кинозал)

    Сравнение с исходником



    Из отзывов...
    Alex Croft

    Проклятье Садако: Возвращение

    Достаточно таинственный, напряженный, завораживающий и динамичный триллер с элементами фильма ужасов. Вполне удачное продолжение, которое классически проигрывает оригинальной ленте. Но от этого абсолютно не теряет своего великолепия и достойного качества. Смотреть? Безусловно!

    8 из 10

    Кинопоиск
    MediaInfo Лог х264
    Общее
    Полное имя : E:VideoZvonok.2.1999.x264.BDRip.1080pZvonok.2.1999.AVO.rus.С.Кузнецов.ac3
    Формат : AC-3
    Формат/Информация : Audio Coding 3
    Размер файла : 305 Мбайт
    Продолжительность : 1 ч. 35 м.
    Режим общего битрейта : Постоянный
    Общий поток : 448 Кбит/сек

    Аудио
    Формат : AC-3
    Формат/Информация : Audio Coding 3
    Расширение режима : CM (complete main)
    Параметр Endianness формата : Big
    Продолжительность : 1 ч. 35 м.
    Вид битрейта : Постоянный
    Битрейт : 448 Кбит/сек
    Каналы : 6 каналов
    Расположение каналов : Front: L C R, Side: L R, LFE
    Частота : 48,0 КГц
    Битовая глубина : 16 бит
    Метод сжатия : С потерями
    Размер потока : 305 Мбайт (100%)

    Общее
    Полное имя : E:VideoZvonok.2.1999.x264.BDRip.1080pZvonok.2.1999.AVO.rus.Ю.Сербин.ac3
    Формат : AC-3
    Формат/Информация : Audio Coding 3
    Размер файла : 305 Мбайт
    Продолжительность : 1 ч. 35 м.
    Режим общего битрейта : Постоянный
    Общий поток : 448 Кбит/сек

    Аудио
    Формат : AC-3
    Формат/Информация : Audio Coding 3
    Расширение режима : CM (complete main)
    Параметр Endianness формата : Big
    Продолжительность : 1 ч. 35 м.
    Вид битрейта : Постоянный
    Битрейт : 448 Кбит/сек
    Каналы : 6 каналов
    Расположение каналов : Front: L C R, Side: L R, LFE
    Частота : 48,0 КГц
    Битовая глубина : 16 бит
    Метод сжатия : С потерями
    Размер потока : 305 Мбайт (100%)

    Общее
    Полное имя : E:VideoZvonok.2.1999.x264.BDRip.1080pZvonok.2.1999.eng.srt
    Размер файла : 80,9 Кбайт

    Общее
    Полное имя : E:VideoZvonok.2.1999.x264.BDRip.1080pZvonok.2.1999.Original.jpn.dts
    Формат : DTS
    Формат/Информация : Digital Theater Systems
    Размер файла : 1,00 Гбайт
    Продолжительность : 1 ч. 35 м.
    Режим общего битрейта : Постоянный
    Общий поток : 1509 Кбит/сек

    Аудио
    Формат : DTS
    Формат/Информация : Digital Theater Systems
    Режим : 16
    Параметр Endianness формата : Big
    Продолжительность : 1 ч. 35 м.
    Вид битрейта : Постоянный
    Битрейт : 1509 Кбит/сек
    Каналы : 6 каналов
    Расположение каналов : Front: L C R, Side: L R, LFE
    Частота : 48,0 КГц
    Битовая глубина : 24 бит
    Метод сжатия : С потерями
    Размер потока : 1,00 Гбайт (100%)

    Общее
    Полное имя : E:VideoZvonok.2.1999.x264.BDRip.1080pZvonok.2.1999.rus.srt
    Размер файла : 62,5 Кбайт

    Общее
    Уникальный идентификатор : 229452590492319603650607825224984579610 (0xAC9EF623DB73F193BBF9CD0DC2824E1A)
    Полное имя : E:VideoZvonok.2.1999.x264.BDRip.1080pZvonok.2.1999.x264.BDRip.1080p.mkv
    Формат : Matroska
    Версия формата : Version 4 / Version 2
    Размер файла : 9,03 Гбайт
    Продолжительность : 1 ч. 35 м.
    Общий поток : 13,6 Мбит/сек
    Название фильма : Звонок 2 / Ringu (Ring 2) / 1999 / BDRip -- STarankov
    Дата кодирования : UTC 2013-11-03 02:19:22
    Программа кодирования : mkvmerge v6.4.1 (;Omega Point;) built on Sep 16 2013 22:05:10
    Библиотека кодирования : libebml v1.3.0 libmatroska v1.4.1

    Видео
    Идентификатор : 1
    Формат : AVC
    Формат/Информация : Advanced Video Codec
    Профиль формата : High@L4.1
    Параметр CABAC формата : Да
    Параметр ReFrames формата : 4 кадра
    Идентификатор кодека : V_MPEG4/ISO/AVC
    Продолжительность : 1 ч. 35 м.
    Битрейт : 9887 Кбит/сек
    Ширина : 1920 пикселей
    Высота : 1036 пикселей
    Соотношение сторон : 1,85:1
    Режим частоты кадров : Постоянный
    Частота кадров : 23,976 кадра/сек
    Цветовое пространство : YUV
    Субдискретизация насыщенности : 4:2:0
    Битовая глубина : 8 бит
    Тип развёртки : Прогрессивная
    Бит/(Пиксели*Кадры) : 0.207
    Размер потока : 6,58 Гбайт (73%)
    Библиотека кодирования : x264 core 133 r2334 a3ac64b
    Залил: msltel
    Размер скачиваемого торрента: 10.63 GB (11409733836 Bytes)


    Звонок 2 / Ringu 2 (1999) BDRip 1080p by msltel | A торрент скачать бесплатно
    загрузка...
    Рейтинг →
     (голосов: 1, оценка 4/5, голосовать можно 1 раз )

    Другие торренты по теме:

  • Звонок / The Ring (2002) BDRip-AVC от Rulya74 торрент скачать бесплатно
  • Один пропущенный звонок / One Missed Call (2008) BDRip-AVC торрент скачать бесплатно
  • Последний звонок / Last Call (2012) SATRip торрент скачать бесплатно
  • Последний звонок / Last Call (2012) DVDRip | Лицензия скачать через торрент бесплатно
  • Звонок 2 / Ringu 2 (1999) BDRip 720p by msltel | A скачать через торрент бесплатно
  • Звонок 0: Рождение / Ringu 0: Basudei (2000) BDRip 720p by msltel | P2, A торрент скачать бесплатно
  • Звонок 0: Рождение / Ringu 0: Basudei (2000) BDRip 1080p by msltel | P2, A скачать через торрент бесплатно
  • Звонок / Ring / Ringu (1998) HDRip от Scarabey | Р торрент скачать бесплатно


    • Комментарии (0):

      Информация

      Информация

        Посетители, находящиеся в группе Гости, не могут оставлять комментарии в данной новости.

        ↓ Меню



        ↓ Опрос

        А Вы добавили сайт в закладки?
        Да
        Не


        Top 10 за неделю (Фильмы)