.
Авторизация | Регистрация
» » Гензель и Гретель: Борцы с колдовством / Hansel Gretel: Warriors of Witchcraft (2013) HDRip от New-Team | P скачать через торрент бесплатно




    Гензель и Гретель: Борцы с колдовством / Hansel Gretel: Warriors of Witchcraft (2013) HDRip от New-Team | P скачать через торрент бесплатно

    Опубликовал: Админ | Дата: 27-02-2015, 11:09 | Просмотров: 342

    Гензель и Гретель: Борцы с колдовством
    Hansel Gretel: Warriors of Witchcraft



    Снималось в: США / Rapid Heart Pictures
    Категория жанра: ужасы, триллер, приключения
    Создали в: 2013
    Время просмотра: 01:23:16

    Перевод текста: Профессиональный (многоголосый)
    Субтитры подготовлены: нет
    Главный режиссер: Дэвид ДеКото / David DeCoteau

    Актеры: Фивель Стюарт, Бубу Стюарт, Эрик Робертс, Ванесса Эйнджел, Джуди Нортон, Шери Кэрри, Тайн Стеклейн, Кортни Терк, Кэтрин Коллинз, Никлас Гиллис, Зак Гудспид

    Сюжет: Брат и сестра поступают в одну из престижных американских школ, где учатся только дети самых богатых и почитаемых людей страны. Ребята решают попасть в закрытый элитный клуб, чтобы стать своими среди сливок общества. Они настолько одержимы идеей подружиться с популярными мальчиками и девочками, что не замечают странных вещей, происходящих в стенах учебного заведения. Проанализировав цепочку некоторых таинственных событий, они понимают, что многие из преподавателей школы - могущественные маги, а члены закрытого клуба - ведьмы и колдуны...

    Автор рипа: _Flash





    Качество фильма видео: HDRip
    Тип видео видео: AVI

    Информация о видео: 688x384, 23.976 fps, XviD build 73 ~1112 kbps avg, 0.180 bit/pixel
    Информация о звуке: 48 kHz, MP3, 128 kb/s (2 ch)


    Раздача от:

    Отчёт MediaInfo

    Общее
    Полное имя : D:Hansel.and.Gretel.Warriors.of.Witchcraft.2013.HDRip.By_Flash.745mb.avi
    Формат : AVI
    Формат/Информация : Audio Video Interleave
    Размер файла : 744 Мбайт
    Продолжительность : 1 ч. 23 м.
    Общий поток : 1250 Кбит/сек
    Программа кодирования : VirtualDubMod 1.5.10.3 | www.virtualdub-fr.org || (build 2550/release)
    Библиотека кодирования : VirtualDubMod build 2550/release

    Видео
    Идентификатор : 0
    Формат : MPEG-4 Visual
    Профиль формата : Advanced Simple@L5
    Параметр BVOP формата : 1
    Параметр QPel формата : Нет
    Параметр GMC формата : Без точки перехода
    Параметр матрицы формата : Выборочная
    Идентификатор кодека : XVID
    Идентификатор кодека/Подсказка : XviD
    Продолжительность : 1 ч. 23 м.
    Битрейт : 1112 Кбит/сек
    Ширина : 688 пикселей
    Высота : 384 пикселя
    Соотношение сторон : 16:9
    Частота кадров : 23,976 кадра/сек
    Цветовое пространство : YUV
    Субдискретизация насыщенности : 4:2:0
    Битовая глубина : 8 бит
    Тип развёртки : Прогрессивная
    Метод сжатия : С потерями
    Бит/(Пиксели*Кадры) : 0.176
    Размер потока : 663 Мбайт (89%)
    Библиотека кодирования : XviD 73

    Аудио
    Идентификатор : 1
    Формат : MPEG Audio
    Версия формата : Version 1
    Профиль формата : Layer 3
    Идентификатор кодека : 55
    Идентификатор кодека/Подсказка : MP3
    Продолжительность : 1 ч. 23 м.
    Вид битрейта : Постоянный
    Битрейт : 128 Кбит/сек
    Каналы : 2 канала
    Частота : 48,0 КГц
    Метод сжатия : С потерями
    Размер потока : 76,2 Мбайт (10%)
    Выравнивание : Соединение по промежуткам
    Продолжительность промежутка : 42 мс. (1,00 видеокадр)
    Время предзагрузки промежутка : 504 мс.
    Библиотека кодирования : LAME3.99r
    Залил: Flash_
    Размер скачиваемого торрента: 744.31 MB (780468224 Bytes)


    Гензель и Гретель: Борцы с колдовством / Hansel Gretel: Warriors of Witchcraft (2013) HDRip от New-Team | P скачать через торрент бесплатно
    загрузка...
    Рейтинг →
     (голосов: 1, оценка 5/5, голосовать можно 1 раз )

    Другие торренты по теме:

  • Гензель и Гретель / Hansel Gretel / Hen Jel gwa Geu Re Tel (2007) BDRip 720p | L2 торрент скачать бесплатно
  • Ужасные Истории: Гензель и Гретель. Коллекционное издание (2013) PC торрент скачать бесплатно
  • Гензель и Гретель: Борцы с колдовством / Hansel Gretel: Warriors of Witchcraft (2013) BDRip 1080p от CINEMANIA | P торрент скачать бесплатно
  • Гензель и Гретель: Борцы с колдовством / Hansel Gretel: Warriors of Witchcraft (2013) BDRip 720p от CINEMANIA | P торрент скачать бесплатно
  • Гензель и Гретель: Борцы с колдовством / Hansel Gretel: Warriors of Witchcraft (2013) HDRip | P торрент скачать бесплатно
  • Гензель и Гретель торрент скачать бесплатно
  • Гензель против Гретель / Hansel Vs. Gretel (2015) WEB-DL 720p | L2, L1 торрент скачать бесплатно
  • Гензель и Гретель / Hansel and Gretel / 1987 / ПМ / DVDRip скачать торрент бесплатно


    • Комментарии (0):

      Информация

      Информация

        Посетители, находящиеся в группе Гости, не могут оставлять комментарии в данной новости.

        ↓ Меню



        ↓ Опрос

        А Вы добавили сайт в закладки?
        Да
        Не


        Top 10 за неделю (Фильмы)