.
Авторизация | Регистрация
» » Тихоокеанский рубеж / Pacific Rim (2013) BDRip-AVC | D | iTunes торрент скачать бесплатно




    Тихоокеанский рубеж / Pacific Rim (2013) BDRip-AVC | D | iTunes торрент скачать бесплатно

    Опубликовал: Админ | Дата: 27-02-2015, 11:09 | Просмотров: 249



    Детально о кино
    Русское название: Тихоокеанский рубеж
    Русское название в мировом прокате: Pacific Rim
    Создали в: 2013
    Категория жанра: фантастика, фэнтези, боевик, приключения

    Главный режиссер: Гильермо дель Торо / Guillermo del Toro

    Актеры: Чарли Ханнэм, Рон Перлман, Идрис Эльба, Диего Клаттенхофф, Чарли Дэй, Берн Горман, Клифтон Коллинз мл., Ринко Кикучи, Роберт Мэйллет, Макс Мартини

    Сюжет фильма:
    Когда из морских глубин поднялись легионы чудовищ, известных как Кайдзу, началась война, которой суждено было забрать миллионы жизней и свести человеческие ресурсы почти к нулю всего за несколько лет. Чтобы сражаться с пришельцами, было создано специальное оружие: огромные роботы, названные Джегерами, они управлялись одновременно двумя пилотами, чьи сознания соединены с помощью нейронной связи. Но даже Джегеры оказываются почти бессильны перед лицом безжалостных Кайдзу. На грани поражения у защитников человечества нет выбора, кроме как обратиться к двум весьма сомнительным героям — никому не нужному бывшему пилоту и неопытному стажеру — которые объединились, чтобы повести в бой некогда легендарного, но сейчас устаревшего Джегера. Вместе они оказываются единственной надеждой человечества, последним препятствием перед надвигающимся апокалипсисом.

    Автор рипа:

    Снималось в: США
    Время просмотра: 02:11:14
    Перевод текста: Дублированный iTunes Russia

    Файл
    Качество фильма: BDRip-AVC |исходник: BD-Remux 1080p|
    Тип видео видео: MKV
    Информация о видео: 896x496 (16:9),~1397 kbps avg, 23.976 fps, 0.131 bit/pixel
    Информация о звуке: AC3 2.0, 192 kbps
    Семпл

    MI
    Формат : Matroska
    Версия формата : Version 2
    Размер файла : 1,46 Гбайт
    Продолжительность : 2 ч. 11 м.
    Общий поток : 1591 Кбит/сек
    Дата кодирования : UTC 2013-10-28 00:55:15
    Программа кодирования : mkvmerge v5.8.0 (;No Sleep / Pillow;) built on Sep 2 2012 15:37:04
    Библиотека кодирования : libebml v1.2.3 libmatroska v1.3.0

    Видео
    Идентификатор : 1
    Формат : AVC
    Формат/Информация : Advanced Video Codec
    Профиль формата : High@L4.1
    Параметр CABAC формата : Да
    Параметр ReFrames формата : 4 кадра
    Идентификатор кодека : V_MPEG4/ISO/AVC
    Продолжительность : 2 ч. 11 м.
    Битрейт : 1397 Кбит/сек
    Ширина : 896 пикселей
    Высота : 496 пикселей
    Соотношение сторон : 16:9
    Режим частоты кадров : Постоянный
    Частота кадров : 23,976 кадра/сек
    Цветовое пространство : YUV
    Субдискретизация насыщенности : 4:2:0
    Битовая глубина : 8 бит
    Тип развёртки : Прогрессивная
    Бит/(Пиксели*Кадры) : 0.131
    Размер потока : 1,25 Гбайт (86%)
    Заголовок : by_ZGV
    Библиотека кодирования : x264 core 129 r2230 1cffe9f
    Настройки программы : cabac=1 / ref=5 / deblock=1:-2:-2 / analyse=0x3:0x133 / me=tesa / subme=11 / psy=1 / psy_rd=1.00:0.00 / mixed_ref=1 / me_range=32 / chroma_me=1 / trellis=2 / 8x8dct=1 / cqm=0 / deadzone=21,11 / fast_pskip=0 / chroma_qp_offset=-2 / threads=3 / lookahead_threads=1 / sliced_threads=0 / slices=4 / nr=0 / decimate=0 / interlaced=0 / bluray_compat=0 / constrained_intra=0 / bframes=4 / b_pyramid=1 / b_adapt=2 / b_bias=0 / direct=3 / weightb=1 / open_gop=0 / weightp=1 / keyint=230 / keyint_min=23 / scenecut=40 / intra_refresh=0 / rc=2pass / mbtree=0 / bitrate=1397 / ratetol=0.1 / qcomp=0.60 / qpmin=10 / qpmax=51 / qpstep=4 / cplxblur=20.0 / qblur=0.5 / ip_ratio=1.40 / pb_ratio=1.30 / aq=1:1.00
    Язык : English
    Default : Да
    Forced : Нет

    Аудио
    Идентификатор : 2
    Формат : AC-3
    Формат/Информация : Audio Coding 3
    Расширение режима : CM (complete main)
    Параметр Endianness формата : Big
    Идентификатор кодека : A_AC3
    Продолжительность : 2 ч. 11 м.
    Вид битрейта : Постоянный
    Битрейт : 192 Кбит/сек
    Каналы : 2 канала
    Расположение каналов : Front: L R
    Частота : 48,0 КГц
    Битовая глубина : 16 бит
    Метод сжатия : С потерями
    Размер потока : 180 Мбайт (12%)
    Заголовок : AC3
    Язык : Russian
    Default : Да
    Forced : Нет

    Меню
    00:00:00.000 : en:00:00:00.000
    00:09:09.132 : en:00:09:09.132
    00:18:35.823 : en:00:18:35.823
    00:23:04.341 : en:00:23:04.341
    00:33:00.395 : en:00:33:00.395
    00:42:44.896 : en:00:42:44.896
    00:50:01.665 : en:00:50:01.665
    01:01:09.666 : en:01:01:09.666
    01:14:45.106 : en:01:14:45.106
    01:22:21.311 : en:01:22:21.311
    01:32:09.941 : en:01:32:09.941
    01:41:55.609 : en:01:41:55.609
    01:51:37.858 : en:01:51:37.858
    01:59:21.029 : en:01:59:21.029
    02:02:17.830 : en:02:02:17.830
    Скриншоты для ознакомления

    Размер скачиваемого торрента: 1.46 GB (1566124355 Bytes)

    Тихоокеанский рубеж / Pacific Rim (2013) BDRip-AVC | D | iTunes торрент скачать бесплатно
    загрузка...
    Рейтинг →
     (голосов: 1, оценка 5/5, голосовать можно 1 раз )

    Другие торренты по теме:

  • Тихоокеанский рубеж / Pacific Rim (2013) HDRip 1080p | Трейлер торрент скачать бесплатно
  • Ramin Djawadi - Тихоокеанский рубеж / Pacific Rim (2013) MP3 торрент скачать бесплатно
  • Тихоокеанский рубеж / Pacific Rim (2013) TS*PROPER* торрент скачать бесплатно
  • Тихоокеанский рубеж / Pacific Rim (2013) WEB-DLRip 1080p | Звук с TS торрент скачать бесплатно
  • Тихоокеанский рубеж / Pacific Rim (2013) WEB-DL 720p | Звук с TS торрент скачать бесплатно
  • Тихоокеанский рубеж / Pacific Rim (2013) WEB-DLRip | Звук с TS торрент скачать бесплатно
  • Тихоокеанский рубеж / Pacific Rim (2013) BDRip от Youtracker скачать через торрент бесплатно
  • Тихоокеанский рубеж / Pacific Rim (2013) HDRip от Scarabey | D скачать через торрент бесплатно


    • Комментарии (0):

      Информация

      Информация

        Посетители, находящиеся в группе Гости, не могут оставлять комментарии в данной новости.

        ↓ Меню



        ↓ Опрос

        А Вы добавили сайт в закладки?
        Да
        Не


        Top 10 за неделю (Фильмы)