.
Авторизация | Регистрация
» » Лавлэйс / Lovelace (2013) HDRip от New-Team | Лицензия торрент скачать бесплатно




    Лавлэйс / Lovelace (2013) HDRip от New-Team | Лицензия торрент скачать бесплатно

    Опубликовал: Админ | Дата: 27-02-2015, 11:09 | Просмотров: 332

    Лавлэйс
    Lovelace




    Снималось в: США
    Категория жанра: драма, биография
    Создали в: 2013
    Время просмотра: 01:32:47

    Перевод текста: Профессиональный (дублированный) | Лицензия |
    Субтитры подготовлены: нет
    Главный режиссер: Роб Эпштейн / Rob Epstein, Джеффри Фридман / Jeffrey Friedman

    Актеры: Аманда Сайфред, Питер Сарсгаард, Роберт Патрик, Шэрон Стоун, Джуно Темпл, Адам Броди, Бобби Каннавале, Крис Нот, Эрик Робертс, Джеймс Франко

    Сюжет: Биография самой известной порноактрисы Линды Лавлейс. Чтобы заработать подобную славу, ей нужно было сыграть только в одном фильме — Глубокая глотка. Всю свою жизнь после этого она посвятила борьбе за права женщин.
    Фильм состоит из двух частей, хронологически повторяющих друг друга. Первая — прилизанная, почти глянцевая история симпатичной девушки, любившей секс и без особых усилий ставшей культовой порнозвездой. Вторая — то, что оставалось за кадром в первой части: сексуальное насилие и рукоприкладство со стороны мужа Линды, умудрявшегося продавать на ночь свою жену даже после громкого успеха Глубокой глотки, проблемы с алкоголем и наркотиками, сексуальные домогательства медиамагнатов, политиков и работников порноиндустрии...

    Автор рипа: _Flash





    Качество фильма видео: HDRip
    Тип видео видео: AVI

    Информация о видео: XviD, 704x384, 23.976 fps, ~985 kbps
    Информация о звуке: MP3, 48000Hz, 2ch, ~128 kbps

    Раздача от:


    Отчёт MediaInfo
    Общее
    Полное имя : D:Lovelace.2013.745mb.By_Flash.avi
    Формат : AVI
    Формат/Информация : Audio Video Interleave
    Размер файла : 745 Мбайт
    Продолжительность : 1 ч. 32 м.
    Общий поток : 1122 Кбит/сек
    Программа кодирования : VirtualDubMod 1.5.10.3 | www.virtualdub-fr.org || (build 2550/release)
    Библиотека кодирования : VirtualDubMod build 2550/release

    Видео
    Идентификатор : 0
    Формат : MPEG-4 Visual
    Профиль формата : Advanced Simple@L5
    Параметр BVOP формата : 1
    Параметр QPel формата : Нет
    Параметр GMC формата : Без точки перехода
    Параметр матрицы формата : Выборочная
    Идентификатор кодека : XVID
    Идентификатор кодека/Подсказка : XviD
    Продолжительность : 1 ч. 32 м.
    Битрейт : 985 Кбит/сек
    Ширина : 704 пикселя
    Высота : 384 пикселя
    Соотношение сторон : 1,85:1
    Частота кадров : 23,976 кадра/сек
    Цветовое пространство : YUV
    Субдискретизация насыщенности : 4:2:0
    Битовая глубина : 8 бит
    Тип развёртки : Прогрессивная
    Метод сжатия : С потерями
    Бит/(Пиксели*Кадры) : 0.152
    Размер потока : 654 Мбайт (88%)
    Библиотека кодирования : XviD 73

    Аудио
    Идентификатор : 1
    Формат : MPEG Audio
    Версия формата : Version 1
    Профиль формата : Layer 3
    Идентификатор кодека : 55
    Идентификатор кодека/Подсказка : MP3
    Продолжительность : 1 ч. 32 м.
    Вид битрейта : Постоянный
    Битрейт : 128 Кбит/сек
    Каналы : 2 канала
    Частота : 48,0 КГц
    Метод сжатия : С потерями
    Размер потока : 85,0 Мбайт (11%)
    Выравнивание : Соединение по промежуткам
    Продолжительность промежутка : 42 мс. (1,00 видеокадр)
    Время предзагрузки промежутка : 504 мс.
    Библиотека кодирования : LAME3.99r
    Залил: Flash_
    Размер скачиваемого торрента: 744.70 MB (780869632 Bytes)


    Лавлэйс / Lovelace (2013) HDRip от New-Team | Лицензия торрент скачать бесплатно
    загрузка...
    Рейтинг →
     (голосов: 1, оценка 4/5, голосовать можно 1 раз )

    Другие торренты по теме:

  • Лавлэйс / Lovelace (2013) WEB-DLRip | Sub торрент скачать бесплатно
  • Лавлэйс / Lovelace (2013) WEB-DLRip | P2 торрент скачать бесплатно
  • Лавлэйс / Lovelace (2013) WEB-DLRip | D | Звук с TS торрент скачать бесплатно
  • Лавлэйс / Lovelace (2013) HDRip | звук с TS, P2 торрент скачать бесплатно
  • Лавлэйс / Lovelace (2013) BDRip 720p | Лицензия скачать через торрент бесплатно
  • Лавлэйс / Lovelace (2013) HDRip | Лицензия скачать через торрент бесплатно
  • Лавлэйс / Lovelace (2013) HDRip от Scarabey | Лицензия торрент скачать бесплатно
  • Лавлэйс / Lovelace (2013) DVD5 R5 от Youtracker | лицензия скачать через торрент бесплатно


    • Комментарии (0):

      Информация

      Информация

        Посетители, находящиеся в группе Гости, не могут оставлять комментарии в данной новости.

        ↓ Меню



        ↓ Опрос

        А Вы добавили сайт в закладки?
        Да
        Не


        Top 10 за неделю (Фильмы)