.
Авторизация | Регистрация
» » Одноклассники 2 / Grown Ups 2 (2013) BDRip 720p | iTunes торрент скачать бесплатно




    Одноклассники 2 / Grown Ups 2 (2013) BDRip 720p | iTunes торрент скачать бесплатно

    Опубликовал: Админ | Дата: 27-02-2015, 11:09 | Просмотров: 296



    Детально о кино
    Русское название: Одноклассники 2
    Русское название в мировом прокате: Grown Ups 2
    Создали в: 2013
    Категория жанра: Комедия
    Снималось в: США, Columbia Pictures, Happy Madison Productions, Sony Pictures Entertainment (SPE)
    Главный режиссер: Дэннис Дуган
    Актеры: Адам Сэндлер, Кевин Джеймс, Крис Рок, Дэвид Спейд, Сальма Хайек, Мария Белло, Майя Рудольф, Ник Свардсон, Стив Бушеми, Колин Куинн, Тим Медоуз, Тим Медоуз, Джон Ловиц, Шакил О`Нил, Александр Людвиг, Питер Данте, Оливер Хадсон, Стив Остин, Тэйлор Лотнер, Майло Вентимилья, Джэйк Голдберг, Камерон Бойс, Ада-Николь Сэнгер, Чайна Энн МакКлейн, Шери Отери, Эйприл Роуз

    Сюжет фильма: После того как Ленни Федер переезжает с семьей обратно в родной город, он и его друзья извлекут немало уроков, когда их дети окончат школу…



    Файл
    Качество фильма: BDRip (720p)
    Информация о видео: MPEG-4 AVC, 4666 Кбит/с, 1280x690
    Информация о звуке: Русский (AC3, 6 ch, 384 Кбит/с), английский (DTS, 6 ch, 1510 Кбит/с)
    Размер скачиваемого торрента: 4.63 ГБ
    Время просмотра: 01:40:58
    Перевод текста: Дублированный iTunes
    Субтитры: Английские

    MI
    Общее
    Уникальный идентификатор : 177460942686051975052419272725300540694 (0x8581BBFE38163587B279F9F7A63C7516)
    Полное имя : D:Grown.Ups.2.2013.BluRay.720p.DTS.x264-CHDGrown.Ups.2.2013.BluRay.720p.DTS.x264-CHD (1).mkv
    Формат : Matroska
    Версия формата : Version 2
    Размер файла : 4,63 Гбайт
    Продолжительность : 1 ч. 40 м.
    Общий поток : 6563 Кбит/сек
    Дата кодирования : UTC 2013-11-04 21:22:13
    Программа кодирования : mkvmerge v6.3.0 (;You can;t stop me!;) built on Jun 28 2013 20:09:41
    Библиотека кодирования : libebml v1.3.0 libmatroska v1.4.0

    Видео
    Идентификатор : 1
    Формат : AVC
    Формат/Информация : Advanced Video Codec
    Профиль формата : High@L4.1
    Параметр CABAC формата : Да
    Параметр ReFrames формата : 8 кадров
    Идентификатор кодека : V_MPEG4/ISO/AVC
    Продолжительность : 1 ч. 40 м.
    Битрейт : 4666 Кбит/сек
    Ширина : 1280 пикселей
    Высота : 690 пикселей
    Соотношение сторон : 1,85:1
    Режим частоты кадров : Постоянный
    Частота кадров : 23,976 кадра/сек
    Цветовое пространство : YUV
    Субдискретизация насыщенности : 4:2:0
    Битовая глубина : 8 бит
    Тип развёртки : Прогрессивная
    Бит/(Пиксели*Кадры) : 0.220
    Размер потока : 3,20 Гбайт (69%)
    Библиотека кодирования : x264 core 138 r2356 a1d3d17
    Настройки программы : cabac=1 / ref=8 / deblock=1:-3:-3 / analyse=0x3:0x113 / me=umh / subme=10 / psy=1 / psy_rd=1.00:0.05 / mixed_ref=1 / me_range=32 / chroma_me=1 / trellis=2 / 8x8dct=1 / cqm=0 / deadzone=21,11 / fast_pskip=0 / chroma_qp_offset=-2 / threads=18 / lookahead_threads=1 / sliced_threads=0 / nr=0 / decimate=1 / interlaced=0 / bluray_compat=0 / constrained_intra=0 / bframes=5 / b_pyramid=2 / b_adapt=2 / b_bias=0 / direct=3 / weightb=1 / open_gop=0 / weightp=2 / keyint=250 / keyint_min=23 / scenecut=40 / intra_refresh=0 / rc=2pass / mbtree=0 / bitrate=4666 / ratetol=1.0 / qcomp=0.70 / qpmin=0 / qpmax=69 / qpstep=4 / cplxblur=20.0 / qblur=0.5 / ip_ratio=1.40 / pb_ratio=1.30 / aq=2:1.00
    Язык : English
    Default : Да
    Forced : Нет

    Аудио #1
    Идентификатор : 2
    Формат : AC-3
    Формат/Информация : Audio Coding 3
    Расширение режима : CM (complete main)
    Параметр Endianness формата : Big
    Идентификатор кодека : A_AC3
    Продолжительность : 1 ч. 40 м.
    Вид битрейта : Постоянный
    Битрейт : 384 Кбит/сек
    Каналы : 6 каналов
    Расположение каналов : Front: L C R, Side: L R, LFE
    Частота : 48,0 КГц
    Битовая глубина : 16 бит
    Метод сжатия : С потерями
    Размер потока : 277 Мбайт (6%)
    Язык : Russian
    Default : Да
    Forced : Нет

    Аудио #2
    Идентификатор : 3
    Формат : DTS
    Формат/Информация : Digital Theater Systems
    Режим : 16
    Параметр Endianness формата : Big
    Идентификатор кодека : A_DTS
    Продолжительность : 1 ч. 40 м.
    Вид битрейта : Постоянный
    Битрейт : 1509 Кбит/сек
    Каналы : 6 каналов
    Расположение каналов : Front: L C R, Side: L R, LFE
    Частота : 48,0 КГц
    Битовая глубина : 24 бит
    Метод сжатия : С потерями
    Размер потока : 1,06 Гбайт (23%)
    Язык : English
    Default : Нет
    Forced : Нет

    Текст
    Идентификатор : 4
    Формат : UTF-8
    Идентификатор кодека : S_TEXT/UTF8
    Идентификатор кодека/Информация : UTF-8 Plain Text
    Язык : English
    Default : Нет
    Forced : Нет

    Скриншоты для ознакомления


    Размер скачиваемого торрента: 4.63 GB (4969854509 Bytes)

    Одноклассники 2 / Grown Ups 2 (2013) BDRip 720p | iTunes торрент скачать бесплатно
    загрузка...
    Рейтинг →
     (голосов: 1, оценка 3/5, голосовать можно 1 раз )

    Другие торренты по теме:

  • Космические Хулиганы - эпизод 5: Одноклассники / Firefly (2002 / 2012) DVDRip торрент скачать бесплатно
  • Одноклассники / Grown Ups (2010) BDRip-AVC | D торрент скачать бесплатно
  • Одноклассники (2013) SATRip торрент скачать бесплатно
  • Одноклассники (2013) WEBRip торрент скачать бесплатно
  • Одноклассники (2013) WEB-DLRip торрент скачать бесплатно
  • Одноклассники 2 / Grown Ups 2 (2013) TS торрент скачать бесплатно
  • Одноклассники / Grown Ups (2010) BDRip от HQCLUB | Лицензия торрент скачать бесплатно
  • OST - Одноклассники 2 / Grown Ups 2 (2013) MP3 скачать через торрент бесплатно


    • Комментарии (0):

      Информация

      Информация

        Посетители, находящиеся в группе Гости, не могут оставлять комментарии в данной новости.

        ↓ Меню



        ↓ Опрос

        А Вы добавили сайт в закладки?
        Да
        Не


        Top 10 за неделю (Фильмы)