.
Авторизация | Регистрация
Хочешь лучшие торренты? Добавь свой email!
Добавить
» » Одноклассники 2 / Grown Ups 2 (2013) BDRip 1080p | iTunes торрент скачать бесплатно




    Одноклассники 2 / Grown Ups 2 (2013) BDRip 1080p | iTunes торрент скачать бесплатно

    Опубликовал: Админ | Дата: 27-02-2015, 11:09 | Просмотров: 272



    Детально о кино
    Русское название: Одноклассники 2
    Русское название в мировом прокате: Grown Ups 2
    Создали в: 2013
    Категория жанра: Комедия
    Снималось в: США, Columbia Pictures, Happy Madison Productions, Sony Pictures Entertainment (SPE)
    Главный режиссер: Дэннис Дуган
    Актеры: Адам Сэндлер, Кевин Джеймс, Крис Рок, Дэвид Спейд, Сальма Хайек, Мария Белло, Майя Рудольф, Ник Свардсон, Стив Бушеми, Колин Куинн, Тим Медоуз, Тим Медоуз, Джон Ловиц, Шакил О`Нил, Александр Людвиг, Питер Данте, Оливер Хадсон, Стив Остин, Тэйлор Лотнер, Майло Вентимилья, Джэйк Голдберг, Камерон Бойс, Ада-Николь Сэнгер, Чайна Энн МакКлейн, Шери Отери, Эйприл Роуз

    Сюжет фильма: После того как Ленни Федер переезжает с семьей обратно в родной город, он и его друзья извлекут немало уроков, когда их дети окончат школу…



    Файл
    Качество фильма: BDRip (1080p)
    Информация о видео: MPEG-4 AVC, 11.2 Vбит/с, 1920x1036
    Информация о звуке: Русский (AC3, 6 ch, 384 Кбит/с), английский (DTS, 6 ch, 1510 Кбит/с)
    Размер скачиваемого торрента: 9.22 ГБ
    Время просмотра: 01:40:58
    Перевод текста: Дублированный iTunes
    Субтитры: Английские

    MI
    Grown.Ups.2.2013.D.BDRip.1080p.mkv
    Format : Matroska
    Format version : Version 4 / Version 2
    File size : 9.22 GiB
    Duration : 1h 40mn
    Overall bit rate : 13.1 Mbps
    Encoded date : UTC 2013-11-04 21:19:57
    Writing application : mkvmerge v6.5.0 (;Isn;t she lovely;) built on Oct 20 2013 12:50:05
    Writing library : libebml v1.3.0 libmatroska v1.4.1

    Video
    ID : 1
    Format : AVC
    Format/Info : Advanced Video Codec
    Format profile : High@L4.1
    Format settings, CABAC : Yes
    Format settings, ReFrames : 4 frames
    Codec ID : V_MPEG4/ISO/AVC
    Duration : 1h 40mn
    Bit rate : 11.2 Mbps
    Width : 1 920 pixels
    Height : 1 036 pixels
    Display aspect ratio : 1.85:1
    Frame rate mode : Constant
    Frame rate : 23.976 fps
    Color space : YUV
    Chroma subsampling : 4:2:0
    Bit depth : 8 bits
    Scan type : Progressive
    Bits/(Pixel*Frame) : 0.235
    Stream size : 7.70 GiB (84%)
    Title : Grown.Ups.2.2013.1080p.BluRay.x264.DTS-WiKi
    Writing library : x264 core 129 r2245 704 36 8e61944 tMod MixAQ 8-bit@4:2:0 X86_64
    Encoding settings : cabac=1 / ref=4 / deblock=1:-3:-3 / analyse=0x3:0x133 / me=umh / subme=11 / psy=1 / fade_compensate=0.00 / psy_rd=1.05:0.10 / mixed_ref=1 / me_range=64 / chroma_me=1 / trellis=2 / 8x8dct=1 / cqm=0 / deadzone=21,11 / fast_pskip=0 / chroma_qp_offset=-3 / threads=18 / lookahead_threads=3 / sliced_threads=0 / nr=0 / decimate=0 / interlaced=0 / bluray_compat=0 / constrained_intra=0 / fgo=0 / bframes=8 / b_pyramid=2 / b_adapt=2 / b_bias=0 / direct=3 / weightb=1 / open_gop=0 / weightp=2 / keyint=250 / keyint_min=23 / scenecut=40 / intra_refresh=0 / rc=2pass / mbtree=0 / bitrate=11184 / ratetol=1.0 / qcomp=0.70 / qpmin=0 / qpmax=69 / qpstep=4 / cplxblur=20.0 / qblur=0.5 / ip_ratio=1.40 / pb_ratio=1.30 / aq=3 / aq-strength=0.90 / aq-sensitivity=10.00 / aq-ifactor=1.00 / aq-pfactor=1.00 / aq-bfactor=1.00 / aq2=0
    Language : English
    Default : Yes
    Forced : Yes

    Audio #1
    ID : 2
    Format : AC-3
    Format/Info : Audio Coding 3
    Mode extension : CM (complete main)
    Format settings, Endianness : Big
    Codec ID : A_AC3
    Duration : 1h 40mn
    Bit rate mode : Constant
    Bit rate : 384 Kbps
    Channel count : 6 channels
    Channel positions : Front: L C R, Side: L R, LFE
    Sampling rate : 48.0 KHz
    Bit depth : 16 bits
    Compression mode : Lossy
    Stream size : 277 MiB (3%)
    Title : Itunes
    Language : Russian
    Default : Yes
    Forced : Yes

    Audio #2
    ID : 3
    Format : DTS
    Format/Info : Digital Theater Systems
    Mode : 16
    Format settings, Endianness : Big
    Codec ID : A_DTS
    Duration : 1h 40mn
    Bit rate mode : Constant
    Bit rate : 1 509 Kbps
    Channel count : 6 channels
    Channel positions : Front: L C R, Side: L R, LFE
    Sampling rate : 48.0 KHz
    Bit depth : 16 bits
    Compression mode : Lossy
    Stream size : 1.06 GiB (12%)
    Language : English
    Default : No
    Forced : No

    Text
    ID : 4
    Format : UTF-8
    Codec ID : S_TEXT/UTF8
    Codec ID/Info : UTF-8 Plain Text
    Language : English
    Default : No
    Forced : No

    Menu
    00:00:00.000 : en:00:00:00.000
    00:04:30.937 : en:00:04:30.937
    00:12:02.555 : en:00:12:02.555
    00:18:14.676 : en:00:18:14.676
    00:25:34.157 : en:00:25:34.157
    00:29:47.660 : en:00:29:47.660
    00:37:02.386 : en:00:37:02.386
    00:45:15.712 : en:00:45:15.712
    00:48:53.430 : en:00:48:53.430
    00:54:22.592 : en:00:54:22.592
    01:00:49.937 : en:01:00:49.937
    01:05:15.661 : en:01:05:15.661
    01:10:52.414 : en:01:10:52.414
    01:16:49.354 : en:01:16:49.354
    01:23:26.793 : en:01:23:26.793
    01:31:02.665 : en:01:31:02.665

    Скриншоты для ознакомления


    Размер скачиваемого торрента: 9.22 GB (9902214713 Bytes)

    Одноклассники 2 / Grown Ups 2 (2013) BDRip 1080p | iTunes торрент скачать бесплатно
    загрузка...
    Рейтинг →
     (голосов: 1, оценка 5/5, голосовать можно 1 раз )

    Другие торренты по теме:



      Комментарии (0):

      Информация

      Информация

        Посетители, находящиеся в группе Гости, не могут оставлять комментарии в данной новости.

        ↓ Меню



        ↓ Опрос

        А Вы добавили сайт в закладки?
        Да
        Не


        Top 10 за месяц (Фильмы)