.
Авторизация | Регистрация




Романовы (2013) HDTV 1080i торрент скачать бесплатно

Опубликовал: Админ | Дата: 27-02-2015, 11:09 | Просмотров: 1181



Детально о кино
Русское название: Романовы.(Михаил Фёдорович, Алексей Михайлович)
Русское название в мировом прокате: Романовы
Создали в: 2013
Категория жанра: докудрама
Главный режиссер: Максим Беспалый
Актеры: Людмила Гамуряк, Андрей Бестужев, Кирилл Искратов, Андрей Домнин, Ольга Равинская, Ирина Агейкина, Илья Щербинин, Анастасия Миляева, Владимир Демидов, Дмитрий Бедарев

Сюжет фильма:
Уникальный по форме проект, приуроченным к 400-летию воцарения на Руси дома Романовых, который сочетает в себе элементы и игрового, и документального кино, информационной графики и анимации. История расскажет о том, что представляло собой русское самодержавие как система управления, каковы ее недостатки и преимущества, какую роль монархи дома Романовых играли в событиях российской и мировой истории. При помощи графики создается максимально исторически-достоверная картина, которая погружает зрителя в атмосферу и ощущение времени и позволяет увидеть царя глазами современников.

Доп.информация: запись со спутника с 1HD канала(пакет НТВ ).
В раздаче 1 фильм (Михаил Фёдорович, Алексей Михайлович)

Снималось в: Россия
Киностудия: STAR MEDIA
Время просмотра: 00:51:58

Файл
Кодек для видео: AVC/H.264
Качество фильма: HDTV 1080i
Информация о видео: 1920x1080 (16:9), 6 682 Кбит/сек, 25.000 fps
Информация о звуке: MP2, 2ch, 48,0 КГц, 192 Кбит/сек
Язык: Русский

Семпл

MediaInfo

Видео
Идентификатор : 305 (0x131)
Идентификатор меню : 1 (0x1)
Формат : AVC
Формат/Информация : Advanced Video Codec
Профиль формата : High@L4.0
Параметр CABAC формата : Да
Параметр ReFrames формата : 3 кадра
Идентификатор кодека : 27
Продолжительность : 51 м.
Битрейт : 6682 Кбит/сек
Ширина : 1920 пикселей
Высота : 1080 пикселей
Соотношение сторон : 16:9
Частота кадров : 25,000 кадров/сек
Стандарт вещания : Component
Цветовое пространство : YUV
Субдискретизация насыщенности : 4:2:0
Битовая глубина : 8 бит
Тип развёртки : Чересстрочная
Порядок развёртки : Верхнее поле первое
Бит/(Пиксели*Кадры) : 0.129
Размер потока : 2,43 Гбайт (92%)
Основные цвета : BT.709
Характеристики трансфера : BT.709
Коэффициенты матрицы : BT.709

Аудио
Идентификатор : 405 (0x195)
Идентификатор меню : 1 (0x1)
Формат : MPEG Audio
Версия формата : Version 1
Профиль формата : Layer 2
Идентификатор кодека : 3
Продолжительность : 51 м.
Вид битрейта : Постоянный
Битрейт : 192 Кбит/сек
Каналы : 2 канала
Частота : 48,0 КГц
Метод сжатия : С потерями
Размер потока : 71,4 Мбайт (3%)
Язык : Russian

Скриншоты для ознакомления



Релиз подготовил: Rmk80disco
Залил: Rmk80disco
Размер скачиваемого торрента: 2.63 GB (2819356664 Bytes)

Романовы (2013) HDTV 1080i торрент скачать бесплатно
загрузка...
Рейтинг →
 (голосов: 1, оценка 3/5, голосовать можно 1 раз )

Другие торренты по теме:

  • Платонъ Васенко - Бояре Романовы и воцаренie Михаила Федоровича (1913) PDF торрент скачать бесплатно
  • Анета Борковская, Стефан Цяра, Гжегож Ясиньский, Яцек Коник - Романовы (2012) PDF торрент скачать бесплатно
  • Романовы. Собственный Его Императорского Величества Конвой (2010) DVDRip-AVC от Тorrent-Хzona торрент скачать бесплатно
  • Тайны истории. Романовы / Mystery Files. The Romanovs (2009) HDTVRip-AVC от Тorrent-Хzona торрент скачать бесплатно
  • Романовы (2013) WEB-DL (1080p) от Nikolspup скачать через торрент бесплатно
  • Романовы (2013) WEB-DL 720p скачать через торрент бесплатно
  • Романовы (2013) WEB-DLRip скачать через торрент бесплатно
  • Романовы (2013) HDTV 1080p торрент скачать бесплатно


    • Комментарии (0):

      Информация

      Информация

        Посетители, находящиеся в группе Гости, не могут оставлять комментарии в данной новости.

        ↓ Меню



        ↓ Опрос

        А Вы добавили сайт в закладки?
        Да
        Не


        Top 10 за неделю (Фильмы)