.
Авторизация | Регистрация
» » Код 11-14 / Code 11-14 (2003) DVDRip скачать через торрент бесплатно




    Код 11-14 / Code 11-14 (2003) DVDRip скачать через торрент бесплатно

    Опубликовал: Админ | Дата: 27-02-2015, 11:09 | Просмотров: 355






    Снималось в: США
    Создали в: WildRice Productions, Wilshire Court Productions
    Категория жанра: Детектив
    Создали в: 2003

    Время просмотра: 01:25:31


    Перевод текста: Профессиональный многоголосый

    Оригинальная аудиодорожка: Нет

    Субтитры подготовлены: Нет


    Главный режиссер: Жан Де Сегонзак


    Актеры: Дэвид Джеймс Эллиотт, Терри Фаррелл, Стивен Лэнг, Нэнси Чэмберс, Сандра Белл, Джессика Беттс, Джейн Холл, Бен Харкин, Брюс Хьюз, Майлс Джеффри, Герард Магвайр, Росс Мэрсден, Робин Мензес, Пол Меркурио, Питер О’Брайэн, Даг Пенти




    Сюжет: Агент ФБР Курт Новак участвует в розысках серийного убийцы-маньяка, фотографирующего своих жертв- женщин перед тем, как их убить, и оставляющего фотографии рядом с мертвыми телами. Получив сообщение о поимке преступника в Австралии, начальство направило туда Курта. Вместо того, чтобы оставить жену и сына дома, он решил совместить приятное с полезным и взял их с собой. Хотя австралийская полиция уверена в том, что поймала настоящего убийцу, у Курта на этот счет имеются сильные сомнения. И они вполне оправданны. Маньяк-преступник наносит новый удар — на этот раз на борту трансокеанского авиалайнера, на котором Курт с семьей возвращаются домой в Лос-Анджелес. Сможет ли Курт найти и обезвредить преступника прежде, чем тот уничтожит самолет и всех его пассажиров?

    Исходник: DVD5 R5

    Тип релиза: DVDRip

    Контейнер: AVI


    Информация о видео: 704x528 (1.33:1), 23.976 fps, XviD ~1891 kbps avg, 0.21 bit/pixel
    Информация о звуке: 48 kHz, AC3 5.0 ~384.00 kbps avg



    MediaInfo
    Общее
    Полное имя : D:1АААКод 11-14.avi
    Формат : AVI
    Формат/Информация : Audio Video Interleave
    Размер файла : 1,36 Гбайт
    Продолжительность : 1 ч. 25 м.
    Общий поток : 2285 Кбит/сек
    Программа кодирования : VirtualDubMod 1.5.10.3 | www.virtualdub-fr.org || (build 2550/release)
    Библиотека кодирования : VirtualDubMod build 2550/release

    Видео
    Идентификатор : 0
    Формат : MPEG-4 Visual
    Профиль формата : Advanced Simple@L5
    Параметр BVOP формата : 2
    Параметр QPel формата : Нет
    Параметр GMC формата : Без точки перехода
    Параметр матрицы формата : Default (H.263)
    Режим смешивания : Сжатый битовый поток
    Идентификатор кодека : XVID
    Идентификатор кодека/Подсказка : XviD
    Продолжительность : 1 ч. 25 м.
    Битрейт : 1892 Кбит/сек
    Ширина : 704 пикселя
    Высота : 528 пикселей
    Соотношение сторон : 4:3
    Частота кадров : 23,976 кадра/сек
    Цветовое пространство : YUV
    Субдискретизация насыщенности : 4:2:0
    Битовая глубина : 8 бит
    Тип развёртки : Прогрессивная
    Метод сжатия : С потерями
    Бит/(Пиксели*Кадры) : 0.212
    Размер потока : 1,13 Гбайт (83%)
    Библиотека кодирования : XviD 1.2.1 (UTC 2008-12-04)

    Аудио
    Идентификатор : 1
    Формат : AC-3
    Формат/Информация : Audio Coding 3
    Расширение режима : CM (complete main)
    Параметр Endianness формата : Big
    Идентификатор кодека : 2000
    Продолжительность : 1 ч. 25 м.
    Вид битрейта : Постоянный
    Битрейт : 384 Кбит/сек
    Каналы : 5 каналов
    Расположение каналов : Front: L C R, Side: L R
    Частота : 48,0 КГц
    Битовая глубина : 16 бит
    Метод сжатия : С потерями
    Размер потока : 235 Мбайт (17%)
    Выравнивание : Разделение по промежуткам
    Продолжительность промежутка : 42 мс. (1,00 видеокадр)
    Время предзагрузки промежутка : 500 мс.







    Скриншоты для ознакомления




    Релиз группа:

    Автор рипа:
    Залил: YArl
    Размер скачиваемого торрента: 1.36 GB (1465538560 Bytes)

    Код 11-14 / Code 11-14 (2003) DVDRip скачать через торрент бесплатно
    загрузка...
    Рейтинг →
     (голосов: 1, оценка 4/5, голосовать можно 1 раз )

    Другие торренты по теме:

  • Код: Крушитель / Code: Breaker TV (2012) HDTVRip-AVC 720р l JAM Vins торрент скачать бесплатно
  • Исходный код / Source Code (2011) HDRip от Scarabey | D Sub торрент скачать бесплатно
  • Николай Кононов - Код Дурова. Реальная история ВКонтакте и ее создателя (2012) FB2, PDF торрент скачать бесплатно
  • Код убийцы / Assassins Code (2011) HDTVRip 720p от MediaClub торрент скачать бесплатно
  • OST - Код да Винчи / The Da Vinci Code (2006) MP3 торрент скачать бесплатно
  • Смешарики. ПИН-код (2011-2013) SATRip торрент скачать бесплатно
  • Смешарики. ПИН-код (2013) IPTVRip торрент скачать бесплатно
  • Код мужчины. Зачатие вне закона (2010) TVRip торрент скачать бесплатно


    • Комментарии (0):

      Информация

      Информация

        Посетители, находящиеся в группе Гости, не могут оставлять комментарии в данной новости.

        ↓ Меню



        ↓ Опрос

        А Вы добавили сайт в закладки?
        Да
        Не


        Top 10 за неделю (Фильмы)