.
Авторизация | Регистрация
» » Возвращение на остров Ним / Return to Nims Island (2013) HDRip | L2 от BitTracker скачать через торрент бесплатно




    Возвращение на остров Ним / Return to Nims Island (2013) HDRip | L2 от BitTracker скачать через торрент бесплатно

    Опубликовал: Админ | Дата: 27-02-2015, 11:09 | Просмотров: 328



    Детально о кино
    Русское название: Возвращение на остров Ним
    Русское название в мировом прокате: Return to Nim;s Island
    Создали в: 2013
    Категория жанра: семейный, приключения, комедия
    Главный режиссер: Брендан Мехер / Brendan Maher
    Актеры: Бинди Сью Ирвин, Тоби Уоллес, Мэттью Лиллард, Джон Уотерс, Себастьян Грегори, Джек Пирсон, Натан Деррик

    Сюжет фильма:
    14-летняя Ним по-прежнему настроена более чем решительно — она твердо намерена защитить свой остров и его лесных обителей от устроителей курорта и браконьеров. Но теперь героиня понимает, что в столь трудном деле, как спасение ее дома, она не может рассчитывать на помощь лишь одних животных. Так у Ним появляется друг-человек — Эдмунд, который сбежал на остров с материка.




    Снималось в: Австралия
    Киностудия: Nim;s Island, Mazur / Kaplan Company, Pictures in Paradise
    Время просмотра: 01:30:06
    Перевод текста: Любительское (двухголосое) sweet couple

    Файл
    Кодек для видео: XviD
    Качество фильма: HDRip (Исх. BDRip 1080p)
    Информация о видео: 688x384 (1.79:1), 23.976 fps, XviD build 50 ~2109 kbps avg, 0.33 bit/pixel
    Информация о звуке: 48 kHz, AC3 Dolby Digital, 2/0 (L,R) ch, ~192.00 kbps avg
    Субтитры: нет

    Семпл

    MediaInfo

    Общее
    Полное имя : S:ФильмыВозвращение на остров Ним. 2013. HDRip. 1.45 (AleksSin).avi
    Формат : AVI
    Формат/Информация : Audio Video Interleave
    Размер файла : 1,45 Гбайт
    Продолжительность : 1 ч. 30 м.
    Общий поток : 2311 Кбит/сек
    Программа кодирования : VirtualDubMod 1.5.10.3 | www.virtualdub-fr.org || (build 2550/release)
    Библиотека кодирования : VirtualDubMod build 2550/release

    Видео
    Идентификатор : 0
    Формат : MPEG-4 Visual
    Профиль формата : Advanced Simple@L5
    Параметр BVOP формата : 2
    Параметр QPel формата : Нет
    Параметр GMC формата : Без точки перехода
    Параметр матрицы формата : Default (H.263)
    Идентификатор кодека : XVID
    Идентификатор кодека/Подсказка : XviD
    Продолжительность : 1 ч. 30 м.
    Битрейт : 2109 Кбит/сек
    Ширина : 688 пикс.
    Высота : 384 пикс.
    Соотношение сторон : 16:9
    Частота кадров : 23,976 кадр/сек
    Цветовое пространство : YUV
    Подвыборка цветности : 4:2:0
    Битовая глубина : 8 бит
    Тип развёртки : Прогрессивная
    Метод сжатия : С потерями
    Бит/(Пиксели*Кадры) : 0.333
    Размер потока : 1,33 Гбайт (91%)
    Библиотека кодирования : XviD 1.2.1 (UTC 2008-12-04)

    Аудио
    Идентификатор : 1
    Формат : AC-3
    Формат/Информация : Audio Coding 3
    Расширение режима : CM (complete main)
    Идентификатор кодека : 2000
    Продолжительность : 1 ч. 30 м.
    Вид битрейта : Постоянный
    Битрейт : 192 Кбит/сек
    Каналы : 2 канала
    Расположение каналов : Front: L R
    Частота : 48,0 КГц
    Битовая глубина : 16 бит
    Метод сжатия : С потерями
    Размер потока : 124 Мбайт (8%)
    Выравнивание : Разделение по промежуткам
    Продолжительность промежутка : 42 мс. (1,00 видеокадр)
    Время предзагрузки промежутка : 500 ms

    Скриншоты для ознакомления


    Релиз подготовил:
    Залил: AleksSin
    Размер скачиваемого торрента: 1.45 GB (1561505792 Bytes)

    Возвращение на остров Ним / Return to Nims Island (2013) HDRip | L2 от BitTracker скачать через торрент бесплатно
    загрузка...
    Рейтинг →
     (голосов: 1, оценка 4/5, голосовать можно 1 раз )

    Другие торренты по теме:

  • Возвращение на базу / Взвейся в небо / R2B: Return 2 Base / Soar Into The Sun (2012) BDRip 1080p торрент скачать бесплатно
  • Питер Пэн / Питер Пэн 2: Возвращение в Нетландию / Peter Pan / Return to Never Land / Дилогия / Dilogy (1953-2002) BDRip 1080p от Youtracker торрент скачать бесплатно
  • S.T.A.L.K.E.R.: Тень Чернобыля - Возвращение Шрама (2012) PC | RePack от SeregA-Lus торрент скачать бесплатно
  • Возвращение высокого блондина / Le retour du grand blond (1974) WEB-DLRip торрент скачать бесплатно
  • Возвращение Фантоцци / Fantozzi - Il ritorno (1996) DVDRip | P торрент скачать бесплатно
  • Месть / Возвращение / The Return (2006) BDRip от Rulya74 торрент скачать бесплатно
  • Возвращение кота / Neko no Ongaeshi / The Cat Returns (2002) HDTVRip 720p торрент скачать бесплатно
  • Властелин колец: Возвращение Короля / The Lord of the Rings: The Return of the King (2003) BDRip 1080p Extended Edition торрент скачать бесплатно


    • Комментарии (0):

      Информация

      Информация

        Посетители, находящиеся в группе Гости, не могут оставлять комментарии в данной новости.

        ↓ Меню



        ↓ Опрос

        А Вы добавили сайт в закладки?
        Да
        Не


        Top 10 за неделю (Фильмы)