.
Авторизация | Регистрация
Хочешь лучшие торренты? Добавь свой email!
Добавить
» » Последние дни на Марсе / The Last Days on Mars (2013) WEB-DLRip от New-Team | L1 скачать через торрент бесплатно




    Последние дни на Марсе / The Last Days on Mars (2013) WEB-DLRip от New-Team | L1 скачать через торрент бесплатно

    Опубликовал: Админ | Дата: 27-02-2015, 11:09 | Просмотров: 371

    Последние дни на Марсе
    The Last Days on Mars




    Снималось в: Великобритания, Ирландия
    Категория жанра: фантастика, триллер
    Создали в: 2013
    Время просмотра: 01:38:29

    Перевод текста: Любительское (одноголосое) den904 - перевод на русский язык Janetta
    Субтитры подготовлены: нет

    Главный режиссер: Рори Робинсон / Ruairi Robinson

    Актеры: Лив Шрайбер, Ромола Гарай, Элиас Котеас, Оливия Уильямс, Джонни Харрис, Горан Костич, Том Каллен, Юсра Варсама ...

    Сюжет: В последние дни пребывания на Марсе астронавты делают поразительное открытие: на собранных ими образцах грунта обнаружились микроскопические следы некой формы жизни. Вскоре землян должен забрать корабль, и оставшиеся часы они решают потратить на сбор дополнительных доказательств, для чего возвращаются в марсианскую долину.

    Автор рипа: _Flash

    Раздача от:




    Качество фильма видео: WEB-DLRip
    Тип видео видео: AVI

    Информация о видео: 720x304, XviD, 23.976 fps, ~1715 kbps, Бит/Пик: 0.327
    Информация о звуке: AC3, 48000Hz, 6ch, ~384 kbps


    Отчёт MediaInfo

    Общее
    Полное имя : D:The.Last.Days.on.Mars.2013.WEB-DLRip.By_Flash.avi
    Формат : AVI
    Формат/Информация : Audio Video Interleave
    Размер файла : 1,45 Гбайт
    Продолжительность : 1 ч. 38 м.
    Общий поток : 2108 Кбит/сек
    Программа кодирования : VirtualDubMod 1.5.10.3 | www.virtualdub-fr.org || (build 2550/release)
    Библиотека кодирования : VirtualDubMod build 2550/release

    Видео
    Идентификатор : 0
    Формат : MPEG-4 Visual
    Профиль формата : Advanced Simple@L5
    Параметр BVOP формата : 1
    Параметр QPel формата : Нет
    Параметр GMC формата : Без точки перехода
    Параметр матрицы формата : Выборочная
    Идентификатор кодека : XVID
    Идентификатор кодека/Подсказка : XviD
    Продолжительность : 1 ч. 38 м.
    Битрейт : 1715 Кбит/сек
    Ширина : 720 пикселей
    Высота : 304 пикселя
    Соотношение сторон : 2,35:1
    Частота кадров : 23,976 кадра/сек
    Цветовое пространство : YUV
    Субдискретизация насыщенности : 4:2:0
    Битовая глубина : 8 бит
    Тип развёртки : Прогрессивная
    Метод сжатия : С потерями
    Бит/(Пиксели*Кадры) : 0.327
    Размер потока : 1,18 Гбайт (81%)
    Библиотека кодирования : XviD 73

    Аудио
    Идентификатор : 1
    Формат : AC-3
    Формат/Информация : Audio Coding 3
    Расширение режима : CM (complete main)
    Параметр Endianness формата : Big
    Идентификатор кодека : 2000
    Продолжительность : 1 ч. 38 м.
    Вид битрейта : Постоянный
    Битрейт : 384 Кбит/сек
    Каналы : 6 каналов
    Расположение каналов : Front: L C R, Side: L R, LFE
    Частота : 48,0 КГц
    Битовая глубина : 16 бит
    Метод сжатия : С потерями
    Размер потока : 271 Мбайт (18%)
    Выравнивание : Разделение по промежуткам
    Продолжительность промежутка : 42 мс. (1,00 видеокадр)
    Время предзагрузки промежутка : 500 мс.


    Скриншоты для ознакомления


    Залил: Flash_
    Размер скачиваемого торрента: 1.45 GB (1557393408 Bytes)

    Последние дни на Марсе / The Last Days on Mars (2013) WEB-DLRip от New-Team | L1 скачать через торрент бесплатно
    загрузка...
    Рейтинг →
     (голосов: 1, оценка 4/5, голосовать можно 1 раз )

    Другие торренты по теме:

  • OST - Последние дни / The Last Days (2013) MP3
  • Последние дни / Latter Days (2003) DVDRip-AVC | P2
  • Последние дни Помпеи / The last days of Pompeii (1959) DVDRip-AVC от Torrent-Xzona
  • Последние дни планеты Земля. Новая особь / Final Days Of Planet Earth (2006) HDRip | P, P2, A
  • Последние дни на Марсе / The Last Days on Mars (2013) WEB-DLRip от CINEMANIA | L1
  • Последние дни на Марсе / The Last Days on Mars (2013) WEB-DL 720p от CINEMANIA | L1
  • Последние дни на Марсе / The Last Days on Mars (2013) WEB-DLRip | L1 скачать через торрент бесплатно
  • Последние дни на Марсе / The Last Days on Mars (2013) WEB-DLRip-AVC | L1 скачать через торрент бесплатно


    • Комментарии (0):

      Информация

      Информация

        Посетители, находящиеся в группе Гости, не могут оставлять комментарии в данной новости.

        ↓ Меню



        ↓ Опрос

        А Вы добавили сайт в закладки?
        Да
        Не


        Top 10 за месяц (Фильмы)