.
Авторизация | Регистрация
Хочешь лучшие торренты? Добавь свой email!
Добавить
» » Современный потрошитель / Жестокие тайны Лондона / Whitechapel (2013) DVDRip | AlexFilm скачать через торрент бесплатно




    Современный потрошитель / Жестокие тайны Лондона / Whitechapel (2013) DVDRip | AlexFilm скачать через торрент бесплатно

    Опубликовал: Админ | Дата: 27-02-2015, 11:09 | Просмотров: 322



    Детально о кино
    Русское название: Современный потрошитель / Жестокие тайны Лондона
    Русское название в мировом прокате: Whitechapel
    Создали в: 2013
    Категория жанра: триллер, криминал, детектив
    Главный режиссер: Джон Ист, С.Дж. Кларксон, Дэвид Эванс
    Актеры: Руперт Пенри-Джонс, Филип Дэвис, Стив Пембертон, Сэм Стокман, Клэр Рашбрук, Бен Бишоп, Ханна Уолтерс, Дэйзи Бомонт, Дэвид Гант, Брайан Протеро, Дэмиэн Дудкевич, Анджела Плезенс, Том Бирд

    Сюжет фильма:
    Джек Потрошитель — псевдоним, присвоенный так и оставшемуся неизвестным серийному убийце, который действовал в Уайтчепеле и прилежащих районах Лондона во второй половине 1888 года. Полиция того времени не была способна его поймать. Смогут ли сделать это современные детективы?



    Снималось в: Великобритания
    Время просмотра: 6 x ~ 45 мин
    Перевод текста: Профессиональный многоголосый закадровый (AlexFilm)

    Файл
    Кодек для видео: XvID / MP3
    Качество фильма: DVDRip
    Информация о видео: 720x400 (1.80:1), 25 fps, XviD ~1290 kbps avg, 0.18 bit/pixel
    Информация о звуке:
    Аудио Rus: 48 kHz, MPEG Layer 3, 2 ch, ~128.00 kbps avg
    Аудио Eng: 48 kHz, MPEG Layer 3, 2 ch, ~128.00 kbps avg

    Скриншоты для ознакомления
    MediaInfo
    Format : AVI
    Format/Info : Audio Video Interleave
    File size : 500 MiB
    Duration : 44mn 49s
    Overall bit rate : 1 561 Kbps
    Movie name : Whitechapel 4x01 @ AlexFilm
    Writing application : VirtualDubMod 1.5.10.2 (build 2542/release)

    Video
    ID : 0
    Format : MPEG-4 Visual
    Format profile : Advanced Simple@L5
    Format settings, BVOP : 1
    Format settings, QPel : No
    Format settings, GMC : No warppoints
    Format settings, Matrix : Default (MPEG)
    Codec ID : XVID
    Codec ID/Hint : XviD
    Duration : 44mn 49s
    Bit rate : 1 290 Kbps
    Width : 720 pixels
    Height : 400 pixels
    Display aspect ratio : 16:9
    Frame rate : 25.000 fps
    Color space : YUV
    Chroma subsampling : 4:2:0
    Bit depth : 8 bits
    Scan type : Progressive
    Compression mode : Lossy
    Bits/(Pixel*Frame) : 0.179
    Stream size : 414 MiB (83%)
    Writing library : XviD 1.2.1 (UTC 2008-12-04)

    Audio #1
    ID : 1
    Format : MPEG Audio
    Format version : Version 1
    Format profile : Layer 3
    Mode : Joint stereo
    Mode extension : MS Stereo
    Codec ID : 55
    Codec ID/Hint : MP3
    Duration : 44mn 49s
    Bit rate mode : Constant
    Bit rate : 128 Kbps
    Channel(s) : 2 channels
    Sampling rate : 48.0 KHz
    Compression mode : Lossy
    Stream size : 41.0 MiB (8%)
    Alignment : Aligned on interleaves
    Interleave, duration : 40 ms (1.00 video frame)
    Interleave, preload duration : 504 ms
    Title : Russian (AlexFilm)

    Audio #2
    ID : 2
    Format : MPEG Audio
    Format version : Version 1
    Format profile : Layer 3
    Mode : Joint stereo
    Codec ID : 55
    Codec ID/Hint : MP3
    Duration : 44mn 49s
    Bit rate mode : Constant
    Bit rate : 128 Kbps
    Channel(s) : 2 channels
    Sampling rate : 48.0 KHz
    Compression mode : Lossy
    Stream size : 41.0 MiB (8%)
    Alignment : Aligned on interleaves
    Interleave, duration : 40 ms (1.00 video frame)
    Interleave, preload duration : 504 ms
    Title : English

    Размер скачиваемого торрента: 2.93 GB (3148752896 Bytes)

    Современный потрошитель / Жестокие тайны Лондона / Whitechapel (2013) DVDRip | AlexFilm скачать через торрент бесплатно
    загрузка...
    Рейтинг →
     (голосов: 1, оценка 3/5, голосовать можно 1 раз )

    Другие торренты по теме:

  • Майя Кучерская - Современный патерик (2010) (2012) MP3
  • Мэри Шелли - Франкенштейн, или Современный Прометей (2010) MP3
  • Татьяна Сиротина - Современный англо-русский, русско-английский словарь грамматический справочник (2013) PDF
  • Артур Жур - Современный интернет-магазин с нуля (2013) ISO
  • Современный румынский детектив. Сборник (1990) MP3
  • Ниал Фергюсон - Империя. Чем современный мир обязан Британии (2013) DJVU
  • Современный снайпер / Modern Sniper (2010) TVRip | P1 скачать через торрент бесплатно
  • Современный квартирный сантехник, строитель и электрик скачать через торрент бесплатно


    • Комментарии (0):

      Информация

      Информация

        Посетители, находящиеся в группе Гости, не могут оставлять комментарии в данной новости.

        ↓ Меню



        ↓ Опрос

        А Вы добавили сайт в закладки?
        Да
        Не


        Top 10 за месяц (Фильмы)