.
Авторизация | Регистрация
» » Патология / Pathology (2008) HDRip | D торрент скачать бесплатно




    Патология / Pathology (2008) HDRip | D торрент скачать бесплатно

    Опубликовал: Админ | Дата: 27-02-2015, 11:09 | Просмотров: 338



    Детально о кино
    Русское название: Патология
    Русское название в мировом прокате: Pathology
    Создали в: 2008
    Категория жанра: ужасы, триллер, криминал
    Главный режиссер: Марк Шолерманн / Marc Scholermann
    Актеры: Мило Вентимилья, Алисса Милано, Майкл Уэстон, Лорен Ли Смит, Дэн Каллахан, Джонни Уитворт, Мей Меланкон, Кир О;Доннелл, Джон де Лэнси, Ларри Дрэйк, Сэм Уитуэр

    Сюжет фильма:
    Молодой и талантливый доктор Грей, закончив Гарвард с отличием, мечтает стать патологоанатомом. И где как не в лучшей клинике города, он может поднабраться опыта и осуществить свою мечту. Рассудив таким образом, Грей поступает в интернатуру в огромный госпиталь.

    Здесь он заводит новые знакомства, благодаря которым у него появляются и новые увлечения. Например, вечерами он стал любить собираться с коллегами в морге и глумиться над трупами бомжей и наркоманов. Однако, вскоре Грей понимает, что его жизнь и он сам изменились не в лучшую сторону. Но осознав свое нежелание участвовать в проказах своих новоиспеченных товарищей, он вскоре понял, что на месте неизвестного трупа в морге может оказаться он сам.



    Снималось в: США
    Киностудия: Metro-Goldwyn-Mayer, Lakeshore Entertainment, Camelot Pictures
    Время просмотра: 01:34:49
    Перевод текста: Профессиональный (дублированный)

    Файл
    Кодек для видео: XviD / MP3
    Качество фильма: HDRip
    Информация о видео: XviD, 672x288 (2.35:1), 23.976 fps, 961 Kbps (0.207 bit/pixel)
    Информация о звуке: MP3, 48.0 KHz, 2 ch, 128 Kbps, CBR

    Скриншоты для ознакомления
    MediaInfo
    General
    Complete name : /media/torrent/Pathology.2008.HDRip.avi
    Format : AVI
    Format/Info : Audio Video Interleave
    File size : 745 MiB
    Duration : 1h 34mn
    Overall bit rate : 1 098 Kbps
    Writing application : VirtualDubMod 1.5.10.2 (build 2540/release)
    Writing library : VirtualDubMod build 2540/release

    Video
    ID : 0
    Format : MPEG-4 Visual
    Format profile : Advanced Simple@L5
    Format settings, BVOP : 1
    Format settings, QPel : No
    Format settings, GMC : No warppoints
    Format settings, Matrix : Custom
    Codec ID : XVID
    Codec ID/Hint : XviD
    Duration : 1h 34mn
    Bit rate : 961 Kbps
    Width : 672 pixels
    Height : 288 pixels
    Display aspect ratio : 2.35:1
    Frame rate : 23.976 fps
    Color space : YUV
    Chroma subsampling : 4:2:0
    Bit depth : 8 bits
    Scan type : Progressive
    Compression mode : Lossy
    Bits/(Pixel*Frame) : 0.207
    Stream size : 652 MiB (87%)
    Writing library : XviD 1.2.1 (UTC 2008-12-04)

    Audio
    ID : 1
    Format : MPEG Audio
    Format version : Version 1
    Format profile : Layer 3
    Codec ID : 55
    Codec ID/Hint : MP3
    Duration : 1h 34mn
    Bit rate mode : Constant
    Bit rate : 128 Kbps
    Channel(s) : 2 channels
    Sampling rate : 48.0 KHz
    Compression mode : Lossy
    Stream size : 86.8 MiB (12%)
    Alignment : Aligned on interleaves
    Interleave, duration : 42 ms (1.00 video frame)
    Interleave, preload duration : 504 ms
    Writing library : LAME3.98r
    Encoding settings : -m s -V 4 -q 2 -lowpass 17 -b 128

    Размер скачиваемого торрента: 744.73 MB (780910592 Bytes)

    Патология / Pathology (2008) HDRip | D торрент скачать бесплатно
    загрузка...
    Рейтинг →
     (голосов: 1, оценка 4/5, голосовать можно 1 раз )

    Другие торренты по теме:

  • Пальцев М.А., Аничков Н.М. - Атлас патологии опухолей человека (2005) DJVU торрент скачать бесплатно
  • Патология / Pathology (2008) BDRip от Rulya74 | D. A торрент скачать бесплатно
  • Патология - Сборник (2003) MP3 скачать через торрент бесплатно
  • Патология / Pathology (2008) HDRip от Scarabey | D скачать через торрент бесплатно
  • Патология / Pathology (2008) BDRip 720p | D скачать через торрент бесплатно
  • Патология / Pathology (2008) BDRip 1080p | D торрент скачать бесплатно


    • Комментарии (0):

      Информация

      Информация

        Посетители, находящиеся в группе Гости, не могут оставлять комментарии в данной новости.

        ↓ Меню



        ↓ Опрос

        А Вы добавили сайт в закладки?
        Да
        Не


        Top 10 за неделю (Фильмы)