.
Авторизация | Регистрация
Хочешь лучшие торренты? Добавь свой email!
Добавить
» » Тихоокеанский рубеж / Pacific Rim (2013) Blu-Ray 1080p | 2-Disc Edition | Лицензия скачать через торрент бесплатно




    Тихоокеанский рубеж / Pacific Rim (2013) Blu-Ray 1080p | 2-Disc Edition | Лицензия скачать через торрент бесплатно

    Опубликовал: Админ | Дата: 27-02-2015, 11:09 | Просмотров: 400



    Детально о кино
    Русское название: Тихоокеанский рубеж
    Русское название в мировом прокате: Pacific Rim
    Создали в: 2013
    Категория жанра: Фантастика, фэнтези, боевик, приключения
    Снималось в: США, Legendary Pictures
    Главный режиссер: Гильермо дель Торо
    Актеры: Чарли Ханнэм, Идрис Эльба, Ринко Кикучи, Чарли Дэй, Роберт Казински, Макс Мартини, Рон Перлман, Клифтон Коллинз мл., Диего Клаттенхофф, Берн Горман

    Сюжет фильма: Когда из морских глубин поднялись легионы чудовищ, известных как Кайдзу, началась война, которой суждено было забрать миллионы жизней и свести человеческие ресурсы почти к нулю всего за несколько лет. Чтобы сражаться с пришельцами, было создано специальное оружие: огромные роботы, названные Джегерами, они управлялись одновременно двумя пилотами, чьи сознания соединены с помощью нейронной связи. Но даже Джегеры оказываются почти бессильны перед лицом безжалостных Кайдзу. На грани поражения у защитников человечества нет выбора, кроме как обратиться к двум весьма сомнительным героям — никому не нужному бывшему пилоту и неопытному стажеру — которые объединились, чтобы повести в бой некогда легендарного, но сейчас устаревшего Джегера. Вместе они оказываются единственной надеждой человечества, последним препятствием перед надвигающимся апокалипсисом.



    Файл
    Качество фильма: Blu-Ray (1080p)
    Информация о видео: MPEG-4 AVC, 23902 Кбит/с, 1920x1080
    Информация о звуке: Русский, чешский, венгерский, польский, турецкий, украинский (AC3, 6 ch, 640 Кбит/с), английский (DTS-HD MA, 6 ch, 2487 Кбит/с), (AC3, 2 ch, 192 Кбит/с)
    Размер скачиваемого торрента: 49.1 ГБ
    Время просмотра: 02:11:14
    Перевод текста: Дублированный лицензия
    Субтитры: Русские, английские, арабские, болгарские, хорватские, чешские, эстонские, греческие, иврит, венгерские, латышские, литовские, польские, португальские, румынские, сербские, словенские, турецкие
    BDInfo
    DISC INFO:

    Disc Title: PACIFIC_RIM_HDCLUB
    Disc Size: 39 924 019 403 bytes
    Protection: AACS
    BD-Java: Yes
    BDInfo: 0.5.8

    PLAYLIST REPORT:

    Name: 00100.MPLS
    Length: 2:11:16.910 (h:m:s.ms)
    Size: 32 407 314 432 bytes
    Total Bitrate: 32,91 Mbps

    VIDEO:

    Codec Bitrate Deion
    ----- ------- -----------
    MPEG-4 AVC Video 23902 kbps 1080p / 23,976 fps / 16:9 / High Profile 4.1

    AUDIO:

    Codec Language Bitrate Deion
    ----- -------- ------- -----------
    DTS-HD Master Audio English 2487 kbps 5.1 / 48 kHz / 2487 kbps / 16-bit (DTS Core: 5.1 / 48 kHz / 1509 kbps / 16-bit)
    Dolby Digital Audio Czech 640 kbps 5.1 / 48 kHz / 640 kbps / DN -4dB
    Dolby Digital Audio Hungarian 640 kbps 5.1 / 48 kHz / 640 kbps / DN -4dB
    Dolby Digital Audio Polish 640 kbps 5.1 / 48 kHz / 640 kbps / DN -4dB
    Dolby Digital Audio Russian 640 kbps 5.1 / 48 kHz / 640 kbps / DN -4dB
    Dolby Digital Audio Turkish 640 kbps 5.1 / 48 kHz / 640 kbps / DN -4dB
    Dolby Digital Audio Ukrainian 640 kbps 5.1 / 48 kHz / 640 kbps / DN -4dB
    Dolby Digital Audio English 192 kbps 2.0 / 48 kHz / 192 kbps / DN -4dB / Dolby Surround

    SUBTITLES:

    Codec Language Bitrate Deion
    ----- -------- ------- -----------
    Presentation Graphics English 30,990 kbps
    Presentation Graphics Arabic 13,840 kbps
    Presentation Graphics Bulgarian 25,282 kbps
    Presentation Graphics Croatian 24,685 kbps
    Presentation Graphics Czech 25,568 kbps
    Presentation Graphics Czech 0,780 kbps
    Presentation Graphics Estonian 23,402 kbps
    Presentation Graphics Greek 24,918 kbps
    Presentation Graphics Hebrew 20,179 kbps
    Presentation Graphics Hungarian 26,786 kbps
    Presentation Graphics Hungarian 0,552 kbps
    Presentation Graphics Latvian 21,770 kbps
    Presentation Graphics Lithuanian 24,619 kbps
    Presentation Graphics Polish 21,856 kbps
    Presentation Graphics Portuguese 28,060 kbps
    Presentation Graphics Romanian 24,382 kbps
    Presentation Graphics Russian 23,014 kbps
    Presentation Graphics Russian 0,711 kbps
    Presentation Graphics Serbian 23,210 kbps
    Presentation Graphics Slovenian 20,064 kbps
    Presentation Graphics Turkish 25,410 kbps
    Presentation Graphics Turkish 0,880 kbps

    FILES:

    Name Time In Length Size Total Bitrate
    ---- ------- ------ ---- -------------
    00001.M2TS 0:00:00.000 2:11:16.910 32 407 314 432 32 914

    Disc Title: PACIFIC_RIM_BONUS_HDCLUB
    Disc Size: 12 792 740 309 bytes
    Protection: AACS
    BD-Java: Yes
    BDInfo: 0.5.8

    PLAYLIST REPORT:

    Name: 00203.MPLS
    Length: 0:46:37.669 (h:m:s.ms)
    Size: 4 890 224 640 bytes
    Total Bitrate: 13,98 Mbps

    VIDEO:

    Codec Bitrate Deion
    ----- ------- -----------
    MPEG-4 AVC Video 12789 kbps 1080p / 23,976 fps / 16:9 / High Profile 4.0

    AUDIO:

    Codec Language Bitrate Deion
    ----- -------- ------- -----------
    Dolby Digital Audio English 192 kbps 2.0 / 48 kHz / 192 kbps / DN -4dB / Dolby Surround

    SUBTITLES:

    Codec Language Bitrate Deion
    ----- -------- ------- -----------
    Presentation Graphics English 17,546 kbps
    Presentation Graphics Chinese 15,498 kbps
    Presentation Graphics Chinese 15,114 kbps
    Presentation Graphics Czech 15,457 kbps
    Presentation Graphics Dutch 16,658 kbps
    Presentation Graphics French 17,310 kbps
    Presentation Graphics German 18,736 kbps
    Presentation Graphics Greek 16,400 kbps
    Presentation Graphics Hungarian 17,253 kbps
    Presentation Graphics Italian 17,960 kbps
    Presentation Graphics Japanese 15,558 kbps
    Presentation Graphics Korean 13,982 kbps
    Presentation Graphics Polish 15,517 kbps
    Presentation Graphics Portuguese 17,755 kbps
    Presentation Graphics Russian 13,873 kbps
    Presentation Graphics Spanish 17,105 kbps
    Presentation Graphics Thai 15,637 kbps
    Presentation Graphics Turkish 16,603 kbps

    FILES:

    Name Time In Length Size Total Bitrate
    ---- ------- ------ ---- -------------
    00015.M2TS 0:00:00.000 0:01:03.063 117 393 408 14 892
    00085.M2TS 0:01:03.063 0:01:10.153 127 801 344 14 574
    00013.M2TS 0:02:13.216 0:00:03.044 5 462 016 14 351
    00014.M2TS 0:02:16.261 0:01:03.063 117 147 648 14 861
    00016.M2TS 0:03:19.324 0:01:06.065 122 591 232 14 845
    00017.M2TS 0:04:25.390 0:00:03.044 5 363 712 14 093
    00018.M2TS 0:04:28.434 0:01:03.063 116 914 176 14 831
    00026.M2TS 0:05:31.497 0:01:06.065 122 050 560 14 779
    00027.M2TS 0:06:37.563 0:00:03.044 5 382 144 14 142
    00028.M2TS 0:06:40.608 0:01:03.063 116 926 464 14 833
    00029.M2TS 0:07:43.671 0:01:06.065 122 118 144 14 787
    00030.M2TS 0:08:49.737 0:00:03.044 5 351 424 14 061
    00031.M2TS 0:08:52.782 0:01:03.063 116 951 040 14 836
    00032.M2TS 0:09:55.845 0:01:06.065 122 259 456 14 805
    00035.M2TS 0:11:01.911 0:01:03.063 117 159 936 14 863
    00036.M2TS 0:12:04.974 0:02:57.635 343 265 280 15 459
    00037.M2TS 0:15:02.609 0:02:35.572 300 748 800 15 465
    00038.M2TS 0:17:38.182 0:02:02.872 238 233 600 15 511
    00042.M2TS 0:19:41.054 0:04:07.163 479 686 656 15 526
    00039.M2TS 0:23:48.218 0:04:13.336 498 683 904 15 748
    00040.M2TS 0:28:01.554 0:02:00.620 229 601 280 15 228
    00043.M2TS 0:30:02.175 0:00:11.052 17 473 536 12 647
    00044.M2TS 0:30:13.227 0:00:08.049 11 409 408 11 339
    00045.M2TS 0:30:21.277 0:00:08.049 10 199 040 10 136
    00047.M2TS 0:30:29.327 0:00:08.049 10 610 688 10 545
    00048.M2TS 0:30:37.376 0:00:08.049 9 990 144 9 928
    00049.M2TS 0:30:45.426 0:00:08.049 10 543 104 10 478
    00050.M2TS 0:30:53.476 0:00:08.049 10 272 768 10 209
    00051.M2TS 0:31:01.526 0:00:11.052 15 925 248 11 527
    00052.M2TS 0:31:12.578 0:00:11.052 16 754 688 12 127
    00053.M2TS 0:31:23.631 0:00:08.049 11 034 624 10 966
    00054.M2TS 0:31:31.681 0:00:08.049 10 665 984 10 600
    00055.M2TS 0:31:39.730 0:00:08.049 11 255 808 11 186
    00056.M2TS 0:31:47.780 0:00:08.049 12 552 192 12 475
    00057.M2TS 0:31:55.830 0:00:08.049 10 967 040 10 899
    00058.M2TS 0:32:03.879 0:00:08.049 9 891 840 9 831
    00059.M2TS 0:32:11.929 0:00:08.049 10 266 624 10 203
    00060.M2TS 0:32:19.979 0:00:08.049 11 384 832 11 315
    00061.M2TS 0:32:28.028 0:00:08.049 10 481 664 10 417
    00062.M2TS 0:32:36.078 0:00:08.049 10 475 520 10 411
    00063.M2TS 0:32:44.128 0:00:08.049 11 022 336 10 954
    00064.M2TS 0:32:52.177 0:00:08.049 10 850 304 10 783
    00065.M2TS 0:33:00.227 0:00:11.052 14 026 752 10 153
    00066.M2TS 0:33:11.280 0:00:11.052 17 080 320 12 363
    00067.M2TS 0:33:22.333 0:00:08.049 11 931 648 11 858
    00068.M2TS 0:33:30.382 0:00:08.049 11 108 352 11 040
    00069.M2TS 0:33:38.432 0:00:08.049 10 844 160 10 777
    00070.M2TS 0:33:46.482 0:00:08.049 10 715 136 10 649
    00071.M2TS 0:33:54.531 0:00:08.049 10 444 800 10 380
    00072.M2TS 0:34:02.581 0:00:08.049 10 500 096 10 435
    00073.M2TS 0:34:10.631 0:00:11.052 14 241 792 10 308
    00086.M2TS 0:34:21.683 0:00:03.002 5 369 856 14 305
    00087.M2TS 0:34:24.686 0:02:00.161 173 137 920 11 527
    00088.M2TS 0:36:24.848 0:00:03.002 5 412 864 14 420
    00089.M2TS 0:36:27.851 0:02:00.161 176 308 224 11 738
    00090.M2TS 0:38:28.013 0:00:03.002 5 382 144 14 338
    00091.M2TS 0:38:31.016 0:02:00.161 179 650 560 11 961
    00092.M2TS 0:40:31.177 0:00:03.002 5 566 464 14 829
    00093.M2TS 0:40:34.180 0:02:00.161 177 506 304 11 818
    00094.M2TS 0:42:34.342 0:00:03.002 5 449 728 14 518
    00095.M2TS 0:42:37.345 0:02:00.161 185 217 024 12 331
    00096.M2TS 0:44:37.507 0:02:00.161 185 210 880 12 331


    Допы
    • Audio Commentary (Disc 1): If you;ve never experienced the depth, detail and honesty of a Guillermo del Toro commentary, you;re in for a real treat. Del Toro begins by touching on the enthusiasm and love that allowed his team to bring the film to the screen, then quickly moves to the production, the development of the project, the ;s story and characters, the texture and rules of the Pacific Rim world, del Toro;s mech and creature design, his approach to visual storytelling, and everything from practical and CG effects to the film;s sprawling sets, performances and inspirations.
    • Focus Points (Disc 1, HD, 62 minutes): Further exploring Pacific Rim are thirteen Focus Point featurettes, available individually or with a Play All icon/option. Far more candid than typical promotional EPKs, del Toro;s Focus Points reveal the passion, obsession and commitment of the director and his production team and cast while delving into the amazing detail and design that went into each element and scene. Featurettes include:
    A Film by Guillermo del Toro (4:47)
    A Primer on Kaijus Jaegers (4:09)
    Intricacy of Robot Design (4:53)
    Honoring the Kaiju Tradition (4:30)
    The Importance of Mass and Scale (5:45)
    Shatterdome Ranger Roll Call (5:39)
    Jaegers Echo Human Grace (4:01)
    Inside the Drift (4:36)
    Goth-Tech (4:39)
    Mega Sized Sets (8:54)
    Baby Kaiju Set Visit (3:07)
    Tokyo Alley Set Visit (3:17)
    Orchestral Sounds from the Anteverse (4:04)

    Бонусный диск:

    Technical Specs
    Blu-ray
    BD-25 Single-Layer Disc

    Subtitles/Captions
    Английский
    Китайский
    Чешский
    Голландский
    Французский
    Немецкий
    Греческий
    Венгерский
    Итальянский
    Японский
    Корейский
    Польский
    Португальский
    Русский
    Испанский
    Тайский
    Турецкий

    Supplements
    • The Director;s Notebook (Disc 2, HD): An interactive presentation of del Toro;s Pacific Rim notebook. Clickable pages access interview pods, image scans and notes created during the film;s pre-production. Also featured is a Magnify Mode that translates the director;s Spanish text and activates exclusive galleries. The interface is a bit cumbersome and overdone, but the six video featurettes contained within are well worth watching. If nothing else, scan through the pages for the corresponding video icons and enjoy the additional Focus Points.
    • The Digital Artistry of Pacific Rim (Disc 2, HD, 17 minutes): From the mind of the director to ILM;s computer-generated Jaegers, Kaiju and devastated cityscapes, track the creative process behind the film;s visual effects. The best bits involve behind the scenes footage of del Toro explaining his vision to the FX crew.
    • The Shatterdome (Disc 2, HD): Welcome to the Shatterdome, an archive of the film;s key design art. Video and still galleries offer a streamlined, manageable presentation of the assets created during the three phases of production. Video pods include exclusive looks at never before seen animatics, maquettes and concept art.
    • Deleted Scenes (Disc 2, HD, 4 minutes): Four decent but brief deleted and extended scenes are available: The Wall of Life/Rations, Excuse Me, Theft and Catch You in the Drift, Dad.
    • Drift Space (Disc 2, HD, 5 minutes): A breakdown of the film;s four Drift sequences.
    • Blooper Reel (Disc 2, HD, 4 minutes): Outtakes, mainly by way of Charlie Day and Ron Perlman.

    Скриншоты для ознакомления






    Релиз подготовил:
    Размер скачиваемого торрента: 49.10 GB (52716759712 Bytes)

    Тихоокеанский рубеж / Pacific Rim (2013) Blu-Ray 1080p | 2-Disc Edition | Лицензия скачать через торрент бесплатно
    загрузка...
    Рейтинг →
     (голосов: 1, оценка 5/5, голосовать можно 1 раз )

    Другие торренты по теме:

  • Тихоокеанский рубеж / Pacific Rim (2013) HDRip 1080p | Трейлер
  • Ramin Djawadi - Тихоокеанский рубеж / Pacific Rim (2013) MP3
  • Тихоокеанский рубеж / Pacific Rim (2013) TS*PROPER*
  • Тихоокеанский рубеж / Pacific Rim (2013) WEB-DLRip 1080p | Звук с TS
  • Тихоокеанский рубеж / Pacific Rim (2013) WEB-DL 720p | Звук с TS
  • Тихоокеанский рубеж / Pacific Rim (2013) WEB-DLRip | Звук с TS
  • Тихоокеанский рубеж / Pacific Rim (2013) BDRip от Youtracker скачать через торрент бесплатно
  • Тихоокеанский рубеж / Pacific Rim (2013) HDRip от Scarabey | D скачать через торрент бесплатно


    • Комментарии (0):

      Информация

      Информация

        Посетители, находящиеся в группе Гости, не могут оставлять комментарии в данной новости.

        ↓ Меню



        ↓ Опрос

        А Вы добавили сайт в закладки?
        Да
        Не


        Top 10 за месяц (Фильмы)