.
Авторизация | Регистрация
» » Росомаха: Бессмертный / The Wolverine (2013) BDRip 720p | EXTENDED | L скачать через торрент бесплатно




    Росомаха: Бессмертный / The Wolverine (2013) BDRip 720p | EXTENDED | L скачать через торрент бесплатно

    Опубликовал: Админ | Дата: 27-02-2015, 11:09 | Просмотров: 323





    Детально о кино
    Русское название: Росомаха: Бессмертный
    Русское название в мировом прокате: The Wolverine
    Создали в: 2013
    Категория жанра: фантастика, фэнтези, боевик, приключения
    Главный режиссер: Джеймс Мэнголд
    Актеры: Хью Джекман, Тао Окамото, Рила Фукусима, Светлана Ходченкова, Уилл Юн Ли, Харукико Яманоути, Хироюки Санада, Брайан Ти, Кен Ямамура, Фамке Янссен

    Сюжет фильма: Новая глава приключений Росомахи развернётся в Японии, где Логану предстоит выяснить, что острее — когти Росомахи или меч Серебряного Самурая.



    Снималось в: США / Twentieth Century Fox Film Corporation, Marvel Entertainment, Dune Entertainment
    Время просмотра: 02:18:14
    Тип перевода: Дублированное не кинотеатральный

    Примечание: EXTENDED версия длиннее театральной на ~12 минут! Расширенные сцены переведены русскими субтитрами!

    Файл
    Тип видео: MKV
    Качество фильма: BDRip 720p CHD
    Информация о видео: 5248 kb/s, 1280x532
    Информация о звуке: Russian: AC3, 192 kb/s (2 ch) / English: DTS, 1510 kb/s (6 ch)
    Субтитры: Russian, English (Full, Forced)
    Дополнительно: Сохранены чаптеры как на Bluray

    Семпл





    MI

    Format : Matroska
    Format version : Version 2
    File size : 6.70 GiB
    Duration : 2h 18mn
    Overall bit rate : 6 940 Kbps
    Encoded date : UTC 2013-11-08 05:52:38
    Writing application : mkvmerge v6.3.0 (;You can;t stop me!;) built on Jun 28 2013 20:09:41
    Writing library : libebml v1.3.0 libmatroska v1.4.0

    Video
    ID : 1
    Format : AVC
    Format/Info : Advanced Video Codec
    Format profile : High@L4.1
    Format settings, CABAC : Yes
    Format settings, ReFrames : 10 frames
    Codec ID : V_MPEG4/ISO/AVC
    Duration : 2h 18mn
    Bit rate : 5 248 Kbps
    Width : 1 280 pixels
    Height : 532 pixels
    Display aspect ratio : 2.40:1
    Frame rate : 23.976 fps
    Color space : YUV
    Chroma subsampling : 4:2:0
    Bit depth : 8 bits
    Scan type : Progressive
    Bits/(Pixel*Frame) : 0.321
    Stream size : 4.92 GiB (73%)
    Title : The.Wolverine.Unleashed.Extended.Edition.2013
    Writing library : x264 core 138 r2356 a1d3d17
    Encoding settings : cabac=1 / ref=10 / deblock=1:-3:-3 / analyse=0x3:0x113 / me=umh / subme=10 / psy=1 / psy_rd=1.00:0.05 / mixed_ref=1 / me_range=32 / chroma_me=1 / trellis=2 / 8x8dct=1 / cqm=0 / deadzone=21,11 / fast_pskip=0 / chroma_qp_offset=-2 / threads=18 / lookahead_threads=1 / sliced_threads=0 / nr=0 / decimate=1 / interlaced=0 / bluray_compat=0 / constrained_intra=0 / bframes=5 / b_pyramid=2 / b_adapt=2 / b_bias=0 / direct=3 / weightb=1 / open_gop=0 / weightp=2 / keyint=250 / keyint_min=23 / scenecut=40 / intra_refresh=0 / rc=2pass / mbtree=0 / bitrate=5248 / ratetol=1.0 / qcomp=0.70 / qpmin=0 / qpmax=69 / qpstep=4 / cplxblur=20.0 / qblur=0.5 / ip_ratio=1.40 / pb_ratio=1.30 / aq=2:1.00
    Language : English
    Default : Yes
    Forced : No

    Audio #1
    ID : 2
    Format : AC-3
    Format/Info : Audio Coding 3
    Mode extension : CM (complete main)
    Format settings, Endianness : Big
    Codec ID : A_AC3
    Duration : 2h 18mn
    Bit rate mode : Constant
    Bit rate : 192 Kbps
    Channel(s) : 2 channels
    Channel positions : Front: L R
    Sampling rate : 48.0 KHz
    Bit depth : 16 bits
    Compression mode : Lossy
    Stream size : 190 MiB (3%)
    Language : Russian
    Default : Yes
    Forced : No

    Audio #2
    ID : 3
    Format : DTS
    Format/Info : Digital Theater Systems
    Format profile : ES
    Codec ID : A_DTS
    Duration : 2h 18mn
    Bit rate mode : Constant
    Bit rate : 1 510 Kbps
    Channel(s) : 6 channels
    Channel positions : Front: L C R, Side: L R, LFE
    Sampling rate : 48.0 KHz
    Bit depth : 24 bits
    Compression mode : Lossy
    Stream size : 1.46 GiB (22%)
    Title : DTS-CORE 1536K ENG
    Language : English
    Default : No
    Forced : No

    Text #1
    ID : 4
    Format : UTF-8
    Codec ID : S_TEXT/UTF8
    Codec ID/Info : UTF-8 Plain Text
    Language : Russian
    Default : Yes
    Forced : No

    Text #2
    ID : 5
    Format : UTF-8
    Codec ID : S_TEXT/UTF8
    Codec ID/Info : UTF-8 Plain Text
    Title : English
    Language : English
    Default : No
    Forced : No

    Text #3
    ID : 6
    Format : UTF-8
    Codec ID : S_TEXT/UTF8
    Codec ID/Info : UTF-8 Plain Text
    Title : English
    Language : English
    Default : No
    Forced : Yes

    Menu
    00:00:00.000 : en:00:00:00.000
    00:05:03.720 : en:00:05:03.720
    00:07:39.793 : en:00:07:39.793
    00:08:40.562 : en:00:08:40.562
    00:10:24.374 : en:00:10:24.374
    00:13:55.668 : en:00:13:55.668
    00:16:48.174 : en:00:16:48.174
    00:20:32.648 : en:00:20:32.648
    00:23:36.498 : en:00:23:36.498
    00:29:13.585 : en:00:29:13.585
    00:33:42.771 : en:00:33:42.771
    00:35:14.779 : en:00:35:14.779
    00:38:36.522 : en:00:38:36.522
    00:43:04.957 : en:00:43:04.957
    00:47:55.080 : en:00:47:55.080
    00:49:31.844 : en:00:49:31.844
    00:52:23.098 : en:00:52:23.098
    00:59:32.318 : en:00:59:32.318
    01:01:31.354 : en:01:01:31.354
    01:07:00.516 : en:01:07:00.516
    01:13:10.261 : en:01:13:10.261
    01:18:52.227 : en:01:18:52.227
    01:23:40.473 : en:01:23:40.473
    01:26:47.160 : en:01:26:47.160
    01:29:50.927 : en:01:29:50.927
    01:35:19.380 : en:01:35:19.380
    01:38:28.194 : en:01:38:28.194
    01:41:43.639 : en:01:41:43.639
    01:48:33.006 : en:01:48:33.006
    01:52:05.969 : en:01:52:05.969
    01:54:56.264 : en:01:54:56.264
    01:58:03.493 : en:01:58:03.493
    02:03:01.999 : en:02:03:01.999
    02:04:57.406 : en:02:04:57.406
    02:07:46.700 : en:02:07:46.700
    02:09:17.374 : en:02:09:17.374
    Скриншоты для ознакомления

    Размер скачиваемого торрента: 6.70 GB (7195043122 Bytes)

    Росомаха: Бессмертный / The Wolverine (2013) BDRip 720p | EXTENDED | L скачать через торрент бесплатно
    загрузка...
    Рейтинг →
     (голосов: 1, оценка 5/5, голосовать можно 1 раз )

    Другие торренты по теме:

  • Росомаха: Бессмертный / The Wolverine (2013) HD 1080p | Трейлер торрент скачать бесплатно
  • Росомаха: Бессмертный / The Wolverine (2013) TS торрент скачать бесплатно
  • OST - Росомаха: Бессмертный / The Wolverine (2013) MP3 торрент скачать бесплатно
  • Росомаха: Бессмертный / The Wolverine (2013) WEBRip | Звук с TS скачать через торрент бесплатно
  • Росомаха: Бессмертный / The Wolverine (2013) DVDRip | Звук с TS скачать через торрент бесплатно
  • Росомаха: Бессмертный / The Wolverine (2013) HDRip | EXTENDED | Звук с TS торрент скачать бесплатно
  • Росомаха: Бессмертный / The Wolverine (2013) HDRip-AVC | Расширенная версия | DL скачать через торрент бесплатно
  • Росомаха: Бессмертный / The Wolverine (2013) HDRip | Teatrical | BaibaKo от INTERCINEMA скачать через торрент бесплатно


    • Комментарии (0):

      Информация

      Информация

        Посетители, находящиеся в группе Гости, не могут оставлять комментарии в данной новости.

        ↓ Меню



        ↓ Опрос

        А Вы добавили сайт в закладки?
        Да
        Не


        Top 10 за неделю (Фильмы)