.
Авторизация | Регистрация
» » Что скрывает прошлое / Blind Terror (2001) DVDRip - от NovaLan скачать через торрент бесплатно




    Что скрывает прошлое / Blind Terror (2001) DVDRip - от NovaLan скачать через торрент бесплатно

    Опубликовал: Админ | Дата: 27-02-2015, 11:09 | Просмотров: 294





    Снималось в: США
    Создали в: Hearst Entertainment Productions, TVA International
    Категория жанра: Триллер
    Создали в: 2001

    Время просмотра: 01:30:56

    Перевод текста: Профессиональный многоголосый
    Оригинальная аудиодорожка: Английская
    Субтитры подготовлены: Нет


    Главный режиссер: Джиллз Уолкер
    Актеры: Настасья Кински, Стюарт Бик, Максим Рой, Джек Лангедийк, Виктория Сноу, Гордон Пинсент, Фрэнк Скорпион, Эдвард Янки, Ноэль Бертон, Полина Б. Абарка




    Сюжет: Когда у Сьюзан умер муж, горечь утраты ей помог преодолеть Кевин Масси. Но стоило Сьюзан выйти за него замуж, как с ней начали происходить странные и пугающие события. Она превратилась в объект охоты, в жертву таинственного преследователя. Все началось со зловещих телефонных звонков. И очень скоро ее жизнь оказалась под угрозой. Сьюзан подозревает бывшую возлюбленную Кевина, но полиция никак не может найти эту загадочную женщину. И тогда Сьюзан обращается за помощью к частному сыщику. Но его убивают прежде, чем он успевает предупредить ее о грозящей опасности. Сьюзан очень боится неведомого убийцу. Но истина, которая откроется ей намного ужаснее, чем она могла себе представить.

    Исходник: DVD5 R5
    Тип релиза: DVDRip
    Контейнер: AVI
    Информация о видео: 704x528 (1.33:1), 23.976 fps, XviD ~1638 kbps avg, 0.18 bit/pixel
    Информация о звуке: #1: 48 kHz, AC3 6.0 ~448.00 kbps avg (RUS)
    Информация о звуке: #2: 48 kHz, AC3 2.0 ~192.00 kbps avg (ENG)

    MediaInfo
    Общее
    Полное имя : D:1АААЧто скрывает прошлое.avi
    Формат : AVI
    Формат/Информация : Audio Video Interleave
    Размер файла : 1,46 Гбайт
    Продолжительность : 1 ч. 30 м.
    Общий поток : 2292 Кбит/сек
    Программа кодирования : VirtualDubMod 1.5.10.2 (build 2540/release)
    Библиотека кодирования : VirtualDubMod build 2540/release

    Видео
    Идентификатор : 0
    Формат : MPEG-4 Visual
    Профиль формата : Advanced Simple@L5
    Параметр BVOP формата : 2
    Параметр QPel формата : Нет
    Параметр GMC формата : Без точки перехода
    Параметр матрицы формата : Default (H.263)
    Режим смешивания : Сжатый битовый поток
    Идентификатор кодека : XVID
    Идентификатор кодека/Подсказка : XviD
    Продолжительность : 1 ч. 30 м.
    Битрейт : 1639 Кбит/сек
    Ширина : 704 пикселя
    Высота : 528 пикселей
    Соотношение сторон : 4:3
    Частота кадров : 23,976 кадра/сек
    Цветовое пространство : YUV
    Субдискретизация насыщенности : 4:2:0
    Битовая глубина : 8 бит
    Тип развёртки : Прогрессивная
    Метод сжатия : С потерями
    Бит/(Пиксели*Кадры) : 0.184
    Размер потока : 1,04 Гбайт (71%)
    Библиотека кодирования : XviD 1.2.1 (UTC 2008-12-04)

    Аудио #1
    Идентификатор : 1
    Формат : AC-3
    Формат/Информация : Audio Coding 3
    Расширение режима : CM (complete main)
    Параметр Endianness формата : Big
    Идентификатор кодека : 2000
    Продолжительность : 1 ч. 30 м.
    Вид битрейта : Постоянный
    Битрейт : 448 Кбит/сек
    Каналы : 6 каналов
    Расположение каналов : Front: L C R, Side: L R, LFE
    Частота : 48,0 КГц
    Битовая глубина : 16 бит
    Метод сжатия : С потерями
    Размер потока : 291 Мбайт (20%)
    Выравнивание : Разделение по промежуткам
    Продолжительность промежутка : 42 мс. (1,00 видеокадр)
    Время предзагрузки промежутка : 500 мс.

    Аудио #2
    Идентификатор : 2
    Формат : AC-3
    Формат/Информация : Audio Coding 3
    Расширение режима : CM (complete main)
    Параметр Endianness формата : Big
    Идентификатор кодека : 2000
    Продолжительность : 1 ч. 30 м.
    Вид битрейта : Постоянный
    Битрейт : 192 Кбит/сек
    Каналы : 2 канала
    Расположение каналов : Front: L R
    Частота : 48,0 КГц
    Битовая глубина : 16 бит
    Метод сжатия : С потерями
    Размер потока : 125 Мбайт (8%)
    Выравнивание : Разделение по промежуткам
    Продолжительность промежутка : 42 мс. (1,00 видеокадр)
    Время предзагрузки промежутка : 500 мс.
    Скриншоты для ознакомления




    Релиз группа:

    Автор рипа:
    Залил: YArl
    Размер скачиваемого торрента: 1.46 GB (1563144192 Bytes)

    Что скрывает прошлое / Blind Terror (2001) DVDRip - от NovaLan скачать через торрент бесплатно
    загрузка...
    Рейтинг →
     (голосов: 1, оценка 3/5, голосовать можно 1 раз )

    Другие торренты по теме:

  • Что скрывают маги: Принцип работы заговоров и наговоров (2008) DVD5 торрент скачать бесплатно
  • Что скрывает ложь / What Lies Beneath (2000) WEB-DL 720p | D, A торрент скачать бесплатно
  • Что скрывает ложь / What Lies Beneath (2000) HDRip от Scarabey | D торрент скачать бесплатно


    • Комментарии (0):

      Информация

      Информация

        Посетители, находящиеся в группе Гости, не могут оставлять комментарии в данной новости.

        ↓ Меню



        ↓ Опрос

        А Вы добавили сайт в закладки?
        Да
        Не


        Top 10 за неделю (Фильмы)